<?xml version="1.0" standalone="no"?>
<!DOCTYPE svg PUBLIC "-//W3C//DTD SVG 1.1//EN" "http://www.w3.org/Graphics/SVG/1.1/DTD/svg11.dtd" >
<svg xmlns="http://www.w3.org/2000/svg" xmlns:xlink="http://www.w3.org/1999/xlink" version="1.1">
<metadata>
Created by FontForge 20190801 at Mon Apr 15 12:43:20 2019
 By www-data
Copyright 2015 Google LLC. All Rights Reserved.
</metadata>
<defs>
<font id="GoogleSansRegular" horiz-adv-x="650" >
  <font-face 
    font-family="GoogleSansRegular"
    font-weight="400"
    font-stretch="normal"
    units-per-em="1000"
    panose-1="2 11 5 3 3 5 2 4 2 4"
    ascent="800"
    descent="-200"
    x-height="510"
    cap-height="716"
    bbox="-365 -253 3284 904"
    underline-thickness="84"
    underline-position="-160"
    unicode-range="U+000D-2215"
  />
<missing-glyph horiz-adv-x="580" 
d="M501 0h-422v716h422v-716zM441 57v602h-302v-602h302z" />
    <glyph glyph-name="G.logo" unicode="Glogoligature" horiz-adv-x="861" 
d="M253 39.5q-96 55.5 -152.5 149.5t-56.5 205t56.5 205t152.5 149.5t207 55.5q163 0 281 -113l-79 -79q-85 80 -202 80q-81 0 -148.5 -40t-106.5 -108.5t-39 -149.5t39 -149.5t106.5 -108.5t148.5 -40q72 0 121.5 23t85.5 59q49 49 61 141h-268v112h377q6 -30 6 -70
q0 -71 -23 -141t-74 -121q-110 -115 -286 -115q-111 0 -207 55.5z" />
    <glyph glyph-name="e.logo" unicode="elogoligature" horiz-adv-x="514" 
d="M155 19q-60 35 -94 95.5t-34 133.5q0 77 33.5 137t90.5 93.5t125 33.5q91 0 147 -53t79 -115l12 -30l-353 -146q41 -80 128 -80q80 0 130 73l90 -60q-30 -45 -85 -81t-135 -36q-74 0 -134 35zM378 354q-10 25 -37 40.5t-61 15.5q-31 0 -64 -18t-54 -53t-20 -83z" />
    <glyph glyph-name="g.logo" unicode="glogoligature" horiz-adv-x="566" 
d="M129 -206q-60 47 -86 109l101 42q16 -38 50 -66t83 -28q66 0 103.5 40t37.5 115v38h-4q-21 -26 -57.5 -43t-81.5 -17q-66 0 -124 35t-93.5 95.5t-35.5 132.5q0 73 35.5 133.5t94 96t123.5 35.5q45 0 81.5 -17t57.5 -42h4v43h110v-474q0 -138 -70.5 -206.5t-180.5 -68.5
q-88 0 -148 47zM356.5 108.5q32.5 20.5 51 57t18.5 81.5q0 46 -18.5 82.5t-51 57.5t-71.5 21q-40 0 -73.5 -21t-53.5 -58t-20 -82t20 -81.5t53.5 -57t73.5 -20.5q39 0 71.5 20.5z" />
    <glyph glyph-name="l.logo" unicode="llogoligature" horiz-adv-x="187" 
d="M42 776h116v-776h-116v776z" />
    <glyph glyph-name="o.logo" unicode="ologoligature" horiz-adv-x="578" 
d="M154 18.5q-61 34.5 -96.5 95t-35.5 134.5q0 75 35.5 135.5t96.5 94.5t133 34t133 -34t96.5 -94.5t35.5 -135.5q0 -74 -35.5 -134.5t-96.5 -95t-133 -34.5t-133 34.5zM361 108.5q34 20.5 54.5 57t20.5 82.5t-20.5 82.5t-54.5 57t-74 20.5t-74 -20.5t-54.5 -57t-20.5 -82.5
t20.5 -82.5t54.5 -57t74 -20.5t74 20.5z" />
    <glyph glyph-name="f_b" unicode="fb" horiz-adv-x="979" 
d="M594.5 10.5q-46.5 26.5 -70.5 64.5h-4v-75h-81v643h-147q-38 0 -61.5 -22.5t-23.5 -64.5v-46h131v-77h-131v-433h-85v433h-94v77h94v48q0 74 47 118t123 44h232v-218l-4 -68h4q23 39 70 65.5t105 26.5q68 0 124 -35t88 -97t32 -139q0 -78 -32 -139.5t-88 -96.5t-124 -35
q-58 0 -104.5 26.5zM772 85q39 24 62.5 68.5t23.5 101.5t-23.5 101.5t-62.5 68.5t-83 24q-45 0 -83.5 -24t-62 -68t-23.5 -102t23.5 -102t62 -68t83.5 -24q44 0 83 24z" />
    <glyph glyph-name="f_f" unicode="ff" horiz-adv-x="696" 
d="M122 433h-94v77h94v55q0 48 22 84t59 55.5t82 19.5q43 0 75 -12v-83q-18 7 -34 11.5t-38 4.5q-33 0 -57 -23.5t-24 -65.5v-46h232v55q0 48 21.5 84t59 55.5t82.5 19.5q41 0 75 -12v-83q-20 8 -35.5 12t-37.5 4q-33 0 -56.5 -23.5t-23.5 -65.5v-46h131v-77h-131v-433h-85
v433h-232v-433h-85v433z" />
    <glyph glyph-name="f_f_b" unicode="ffb" horiz-adv-x="1295" 
d="M911 10.5q-46 26.5 -70 64.5h-4v-75h-81v643h-148q-38 0 -61.5 -22.5t-23.5 -64.5v-46h131v-77h-131v-433h-84v433h-232v-433h-85v433h-94v77h94v55q0 48 22 84t59 55.5t82 19.5q43 0 75 -12v-83q-18 7 -34 11.5t-38 4.5q-33 0 -57 -23.5t-24 -65.5v-46h232v48
q0 74 47 118t122 44h233v-218l-4 -68h4q24 39 70 65.5t104 26.5q69 0 124.5 -35t87.5 -97t32 -139q0 -78 -32 -139.5t-87.5 -96.5t-124.5 -35q-58 0 -104 26.5zM1089 85q39 24 62 68t23 102t-23 102t-62 68t-83 24q-45 0 -83.5 -24t-62 -68t-23.5 -102t23.5 -102t62 -68
t83.5 -24q44 0 83 24z" />
    <glyph glyph-name="f_f_h" unicode="ffh" horiz-adv-x="1256" 
d="M122 433h-94v77h94v55q0 48 22 84t59 55.5t82 19.5q43 0 75 -12v-83q-18 7 -34 11.5t-38 4.5q-33 0 -57 -23.5t-24 -65.5v-46h232v48q0 74 47 118t122 44h232v-215l-4 -70h4q21 39 66.5 65t99.5 26q93 0 142 -54.5t49 -144.5v-327h-85v314q0 69 -35 102t-91 33
q-40 0 -73.5 -24t-53 -62t-19.5 -79v-284h-85v643h-147q-38 0 -61.5 -22.5t-23.5 -64.5v-46h131v-77h-131v-433h-84v433h-232v-433h-85v433z" />
    <glyph glyph-name="f_f_i" unicode="ffi" horiz-adv-x="910" 
d="M122 433h-94v77h94v55q0 48 22 84t59 55.5t82 19.5q43 0 75 -12v-83q-18 7 -34 11.5t-38 4.5q-33 0 -57 -23.5t-24 -65.5v-46h232v55q0 48 21.5 84t59 55.5t82.5 19.5q41 0 75 -12v-83q-20 8 -35.5 12t-37.5 4q-33 0 -57 -23.5t-24 -65.5v-46h317v-510h-85v433h-232v-433
h-84v433h-232v-433h-85v433zM754.5 616q-17.5 18 -17.5 43t17.5 43t42.5 18q26 0 43.5 -17.5t17.5 -43.5q0 -25 -17.5 -43t-43.5 -18q-25 0 -42.5 18z" />
    <glyph glyph-name="f_f_j" unicode="ffj" horiz-adv-x="910" 
d="M654 -219v81q8 -5 20.5 -8t22.5 -3q31 0 44.5 19.5t13.5 57.5v505h-232v-433h-84v433h-232v-433h-85v433h-94v77h94v55q0 48 22 84t59 55.5t82 19.5q43 0 75 -12v-83q-18 7 -34 11.5t-38 4.5q-33 0 -57 -23.5t-24 -65.5v-46h232v55q0 48 21.5 84t59 55.5t82.5 19.5
q41 0 75 -12v-83q-20 8 -35.5 12t-37.5 4q-33 0 -57 -23.5t-24 -65.5v-46h317v-582q0 -77 -37 -115.5t-104 -38.5q-22 0 -45 7zM754.5 616q-17.5 18 -17.5 43t17.5 43t42.5 18q26 0 43.5 -17.5t17.5 -43.5q0 -25 -17.5 -43t-43.5 -18q-25 0 -42.5 18z" />
    <glyph glyph-name="f_f_k" unicode="ffk" horiz-adv-x="1197" 
d="M122 433h-94v77h94v55q0 48 22 84t59 55.5t82 19.5q43 0 75 -12v-83q-18 7 -34 11.5t-38 4.5q-33 0 -57 -23.5t-24 -65.5v-46h232v48q0 74 47 118t122 44h232v-454l240 244h108v-4l-200 -202l206 -300v-4h-102l-164 245l-88 -88v-157h-85v643h-147q-38 0 -61.5 -22.5
t-23.5 -64.5v-46h131v-77h-131v-433h-84v433h-232v-433h-85v433z" />
    <glyph glyph-name="f_f_l" unicode="ffl" horiz-adv-x="903" 
d="M122 433h-94v77h94v55q0 48 22 84t59 55.5t82 19.5q43 0 75 -12v-83q-18 7 -34 11.5t-38 4.5q-33 0 -57 -23.5t-24 -65.5v-46h232v48q0 74 47 118t122 44h232v-720h-85v643h-147q-38 0 -61.5 -22.5t-23.5 -64.5v-46h131v-77h-131v-433h-84v433h-232v-433h-85v433z" />
    <glyph glyph-name="f_f_t" unicode="fft" horiz-adv-x="1004" 
d="M839.5 2q-26.5 10 -44.5 27q-20 19 -30 44t-10 61v299h-232v-433h-84v433h-232v-433h-85v433h-94v77h94v55q0 48 22 84t59 55.5t82 19.5q43 0 75 -12v-83q-18 7 -34 11.5t-38 4.5q-33 0 -57 -23.5t-24 -65.5v-46h232v55q0 48 21.5 84t59 55.5t82.5 19.5q41 0 75 -12v-83
q-20 8 -35.5 12t-37.5 4q-33 0 -57 -23.5t-24 -65.5v-46h232v144h85v-144h124v-77h-124v-278q0 -42 16 -62q19 -22 55 -22q29 0 56 17v-83q-16 -7 -31 -10t-39 -3q-31 0 -57.5 10z" />
    <glyph glyph-name="f_h" unicode="fh" horiz-adv-x="940" 
d="M122 433h-94v77h94v48q0 74 47 118t123 44h232v-215l-4 -70h4q22 39 67.5 65t99.5 26q93 0 141.5 -54.5t48.5 -144.5v-327h-84v314q0 69 -35 102t-91 33q-41 0 -74.5 -24t-53 -62t-19.5 -79v-284h-85v643h-147q-38 0 -61.5 -22.5t-23.5 -64.5v-46h131v-77h-131v-433h-85
v433z" />
    <glyph glyph-name="f_i" unicode="fi" horiz-adv-x="594" 
d="M438 622q-18 18 -18 43q0 26 18 43.5t43 17.5q26 0 43.5 -17.5t17.5 -43.5q0 -25 -17.5 -43t-43.5 -18q-25 0 -43 18zM122 433h-94v77h94v55q0 48 22 84t59 55.5t82 19.5q43 0 75 -12v-83q-18 7 -34 11.5t-38 4.5q-33 0 -57 -23.5t-24 -65.5v-46h317v-510h-85v433h-232
v-433h-85v433z" />
    <glyph glyph-name="f_j" unicode="fj" horiz-adv-x="594" 
d="M438 622q-18 18 -18 43q0 26 18 43.5t43 17.5q26 0 43.5 -17.5t17.5 -43.5q0 -25 -17.5 -43t-43.5 -18q-25 0 -43 18zM338 -219v81q8 -5 20 -8t22 -3q31 0 45 19.5t14 57.5v505h-232v-433h-85v433h-94v77h94v55q0 48 22 84t59 55.5t82 19.5q43 0 75 -12v-83
q-18 7 -34 11.5t-38 4.5q-33 0 -57 -23.5t-24 -65.5v-46h317v-582q0 -77 -37.5 -115.5t-103.5 -38.5q-24 0 -45 7z" />
    <glyph glyph-name="f_k" unicode="fk" horiz-adv-x="881" 
d="M122 433h-94v77h94v48q0 74 47 118t123 44h232v-454l241 244h108v-4l-200 -202l205 -300v-4h-101l-164 245l-89 -88v-157h-85v643h-147q-38 0 -61.5 -22.5t-23.5 -64.5v-46h131v-77h-131v-433h-85v433z" />
    <glyph glyph-name="f_l" unicode="fl" horiz-adv-x="587" 
d="M122 433h-94v77h94v48q0 74 47 118t123 44h232v-720h-85v643h-147q-38 0 -61.5 -22.5t-23.5 -64.5v-46h131v-77h-131v-433h-85v433z" />
    <glyph glyph-name="f_t" unicode="ft" horiz-adv-x="688" 
d="M523.5 2q-26.5 10 -44.5 27q-40 38 -40 105v299h-232v-433h-85v433h-94v77h94v55q0 48 22 84t59 55.5t82 19.5q43 0 75 -12v-83q-18 7 -34 11.5t-38 4.5q-33 0 -57 -23.5t-24 -65.5v-46h232v144h85v-144h125v-77h-125v-278q0 -43 16 -62q19 -22 55 -22q31 0 56 17v-83
q-15 -7 -30.5 -10t-39.5 -3q-31 0 -57.5 10z" />
    <glyph glyph-name="r_f" unicode="rf" horiz-adv-x="756" 
d="M499 433h-95v77h95v55q0 48 22 84t59 55.5t82 19.5q43 0 75 -12v-83q-20 8 -35.5 12t-36.5 4q-34 0 -57.5 -23.5t-23.5 -65.5v-46h130v-77h-130v-433h-85v433zM63 510h81v-81h4q18 45 61 70t95 25q21 0 36 -3v-87q-17 4 -46 4q-65 0 -105.5 -43t-40.5 -112v-283h-85v510z
" />
    <glyph glyph-name="r_f_f" unicode="rff" horiz-adv-x="1065" 
d="M63 510h81v-81h4q18 45 61 70t95 25q21 0 36 -3v-87q-17 4 -46 4q-65 0 -105.5 -43t-40.5 -112v-283h-85v510zM491 433h-94v77h94v55q0 48 22 84t59 55.5t82 19.5q43 0 75 -12v-83q-18 7 -34 11.5t-38 4.5q-33 0 -57 -23.5t-24 -65.5v-46h232v55q0 48 21.5 84t59 55.5
t82.5 19.5q41 0 75 -12v-83q-20 8 -35.5 12t-37.5 4q-33 0 -56.5 -23.5t-23.5 -65.5v-46h131v-77h-131v-433h-85v433h-232v-433h-85v433z" />
    <glyph glyph-name="r_t" unicode="rt" horiz-adv-x="745" 
d="M580.5 2q-26.5 10 -44.5 27q-40 38 -40 105v299h-89v77h89v144h85v-144h125v-77h-125v-278q0 -42 16 -62q19 -22 55 -22q31 0 56 17v-83q-15 -7 -30.5 -10t-39.5 -3q-31 0 -57.5 10zM63 510h81v-81h4q18 45 61 70t95 25q21 0 36 -3v-87q-17 4 -46 4q-65 0 -105.5 -43
t-40.5 -112v-283h-85v510z" />
    <glyph glyph-name="t_f" unicode="tf" horiz-adv-x="691" 
d="M201.5 2q-26.5 10 -44.5 27q-40 38 -40 105v299h-89v77h89v144h85v-144h232v55q0 48 21.5 84t59 55.5t82.5 19.5q41 0 75 -12v-83q-20 8 -35.5 12t-37.5 4q-33 0 -57 -23.5t-24 -65.5v-46h131v-77h-131v-433h-84v433h-232v-278q0 -42 16 -62q19 -22 55 -22q31 0 56 17
v-83q-15 -7 -30.5 -10t-39.5 -3q-31 0 -57.5 10z" />
    <glyph glyph-name="t_t" unicode="tt" horiz-adv-x="680" 
d="M201.5 2q-26.5 10 -44.5 27q-40 38 -40 105v299h-89v77h89v144h85v-144h230v144h84v-144h125v-77h-125v-278q0 -42 17 -62q19 -22 55 -22q30 0 55 17v-83q-15 -7 -30 -10t-39 -3q-31 0 -58 10t-45 27q-20 19 -29.5 44.5t-9.5 60.5v299h-230v-278q0 -42 16 -62
q19 -22 55 -22q31 0 56 17v-83q-15 -7 -30.5 -10t-39.5 -3q-31 0 -57.5 10z" />
    <glyph glyph-name="Google.logo" unicode="Googlelogoligature" horiz-adv-x="3284" 
d="M253 39.5q-96 55.5 -152.5 149.5t-56.5 205t56.5 205t152.5 149.5t207 55.5q163 0 281 -113l-79 -79q-85 80 -202 80q-81 0 -148.5 -40t-106.5 -108.5t-39 -149.5t39 -149.5t106.5 -108.5t148.5 -40q72 0 121.5 23t85.5 59q49 49 61 141h-268v112h377q6 -30 6 -70
q0 -71 -23 -141t-74 -121q-110 -115 -286 -115q-111 0 -207 55.5zM2625 776h116v-776h-116v776zM1015 18.5q-61 34.5 -96.5 95t-35.5 134.5q0 75 35.5 135.5t96.5 94.5t133 34t133 -34t96.5 -94.5t35.5 -135.5q0 -74 -35.5 -134.5t-96.5 -95t-133 -34.5t-133 34.5z
M1593 18.5q-61 34.5 -96.5 95t-35.5 134.5q0 75 35.5 135.5t96.5 94.5t133 34t133 -34t96.5 -94.5t35.5 -135.5q0 -74 -35.5 -134.5t-96.5 -95t-133 -34.5t-133 34.5zM2146 -206q-60 47 -86 109l101 42q16 -38 50 -66t83 -28q66 0 103.5 40t37.5 115v38h-4
q-21 -26 -57.5 -43t-81.5 -17q-66 0 -124 35t-93.5 95.5t-35.5 132.5q0 73 35.5 133.5t94 96t123.5 35.5q45 0 81.5 -17t57.5 -42h4v43h110v-474q0 -138 -70.5 -206.5t-180.5 -68.5q-88 0 -148 47zM2925 19q-60 35 -94 95.5t-34 133.5q0 77 33.5 137t90.5 93.5t125 33.5
q91 0 147 -53t79 -115l12 -30l-353 -146q41 -80 128 -80q80 0 130 73l90 -60q-30 -45 -85 -81t-135 -36q-74 0 -134 35zM3148 354q-10 25 -37 40.5t-61 15.5q-31 0 -64 -18t-54 -53t-20 -83zM1222 108.5q34 20.5 54.5 57t20.5 82.5t-20.5 82.5t-54.5 57t-74 20.5t-74 -20.5
t-54.5 -57t-20.5 -82.5t20.5 -82.5t54.5 -57t74 -20.5t74 20.5zM1800 108.5q34 20.5 54.5 57t20.5 82.5t-20.5 82.5t-54.5 57t-74 20.5t-74 -20.5t-54.5 -57t-20.5 -82.5t20.5 -82.5t54.5 -57t74 -20.5t74 20.5zM2373.5 108.5q32.5 20.5 51 57t18.5 81.5q0 46 -18.5 82.5
t-51 57.5t-71.5 21q-40 0 -73.5 -21t-53.5 -58t-20 -82t20 -81.5t53.5 -57t73.5 -20.5q39 0 71.5 20.5z" />
    <glyph glyph-name=".notdef" horiz-adv-x="580" 
d="M501 0h-422v716h422v-716zM441 57v602h-302v-602h302z" />
    <glyph glyph-name=".null" horiz-adv-x="0" 
 />
    <glyph glyph-name="nonmarkingreturn" unicode="&#xd;" horiz-adv-x="0" 
d="M0 0z" />
    <glyph glyph-name="space" unicode=" " horiz-adv-x="232" 
d="M0 0z" />
    <glyph glyph-name="exclam" unicode="!" horiz-adv-x="238" 
d="M77 473v243h84v-243l-10 -262h-65zM73.5 12.5q-18.5 18.5 -18.5 45.5q0 26 18.5 44.5t45.5 18.5t45.5 -18.5t18.5 -44.5q0 -27 -18.5 -45.5t-45.5 -18.5t-45.5 18.5z" />
    <glyph glyph-name="quotedbl" unicode="&#x22;" horiz-adv-x="323" 
d="M51 716h77v-221h-77v221zM194 716h77v-221h-77v221z" />
    <glyph glyph-name="numbersign" unicode="#" horiz-adv-x="641" 
d="M154 206h-124l12 70h123l21 141h-125l11 70h124l29 197h75l-30 -197h142l29 197h75l-30 -197h124l-11 -70h-123l-21 -141h125l-11 -70h-125l-30 -206h-75l31 206h-142l-30 -206h-75zM381 276l21 141h-142l-21 -141h142z" />
    <glyph glyph-name="dollar" unicode="$" horiz-adv-x="542" 
d="M443 47q-53 -49 -132 -60v-87h-70v86q-71 8 -130.5 55.5t-80.5 126.5l76 30q14 -50 50.5 -86t84.5 -45v251l-3 1q-90 36 -136 83t-46 117q0 44 22 83.5t64 65.5t99 31v85h70v-87q70 -11 113 -50.5t57 -84.5l-75 -32q-9 28 -32.5 51.5t-62.5 32.5v-235q88 -37 136.5 -81
t48.5 -118q0 -84 -53 -133zM165.5 456q24.5 -26 75.5 -49v210q-45 -7 -72.5 -33.5t-27.5 -64.5q0 -37 24.5 -63zM384.5 106q27.5 28 27.5 72q0 37 -25 62.5t-76 48.5v-220q46 9 73.5 37z" />
    <glyph glyph-name="percent" unicode="%" horiz-adv-x="827" 
d="M124.5 381.5q-39.5 23.5 -62 63t-22.5 84.5t22.5 84.5t62 63t85.5 23.5t85 -23.5t62 -63t23 -84.5t-23 -84.5t-62 -63t-85 -23.5t-85.5 23.5zM164 28l445 663l53 -36l-444 -662zM282 451.5q29 31.5 29 77.5q0 47 -29 78t-72 31t-72.5 -31t-29.5 -78q0 -46 29.5 -77.5
t72.5 -31.5t72 31.5zM532.5 7.5q-39.5 23.5 -62 63t-22.5 84.5t22.5 84.5t62 63t85.5 23.5t85 -23.5t62 -63t23 -84.5t-23 -84.5t-62 -63t-85 -23.5t-85.5 23.5zM690 77.5q29 31.5 29 77.5q0 47 -29 78t-72 31t-72.5 -31t-29.5 -78q0 -46 29.5 -77.5t72.5 -31.5t72 31.5z
" />
    <glyph glyph-name="ampersand" unicode="&#x26;" horiz-adv-x="628" 
d="M516 121l68 -89l-64 -48l-51 67q-70 -67 -167 -67q-71 0 -130 33t-93.5 90.5t-34.5 127.5q0 63 33.5 119.5t91.5 92.5l-1 1q-26 34 -39 62.5t-13 58.5q0 44 23 81.5t62 59.5t85 22q60 0 101 -34.5t58 -86.5l-73 -39q-27 79 -86 79q-37 0 -61 -22.5t-24 -59.5t25 -69
l241 -315l66 113l67 -40zM422 114l-206 271q-43 -23 -69 -63.5t-26 -85.5q0 -50 24 -90t65.5 -62.5t91.5 -22.5q73 0 120 53z" />
    <glyph glyph-name="quotesingle" unicode="'" horiz-adv-x="180" 
d="M51 716h77v-221h-77v221z" />
    <glyph glyph-name="parenleft" unicode="(" horiz-adv-x="323" 
d="M115.5 67.5q-52.5 119.5 -52.5 254.5t52.5 254.5t125.5 203.5l62 -44q-68 -81 -112 -190.5t-44 -223.5t44 -223.5t112 -190.5l-62 -44q-73 84 -125.5 203.5z" />
    <glyph glyph-name="parenright" unicode=")" horiz-adv-x="323" 
d="M20 -92q68 81 112 190.5t44 223.5t-44 223.5t-112 190.5l62 44q73 -84 125.5 -203.5t52.5 -254.5t-52.5 -254.5t-125.5 -203.5z" />
    <glyph glyph-name="asterisk" unicode="*" horiz-adv-x="427" 
d="M77 418l76 103l-2 8l-112 38l23 67l110 -39l6 2v119h71v-119l5 -2l111 39l23 -67l-112 -38l-3 -8l77 -103l-58 -42l-75 103h-7l-75 -103z" />
    <glyph glyph-name="plus" unicode="+" horiz-adv-x="558" 
d="M496 236h-182v-182h-70v182h-182v70h182v182h70v-182h182v-70z" />
    <glyph glyph-name="comma" unicode="," horiz-adv-x="241" 
d="M51 -83l54 83q-18 3 -32.5 19t-14.5 39q0 26 18.5 44.5t45.5 18.5t45.5 -18.5t18.5 -44.5q0 -17 -7 -32.5t-21 -35.5l-66 -100z" />
    <glyph glyph-name="hyphen" unicode="-" horiz-adv-x="441" 
d="M62 345h317v-70h-317v70z" />
    <glyph glyph-name="period" unicode="." horiz-adv-x="238" 
d="M73.5 12.5q-18.5 18.5 -18.5 45.5q0 26 18.5 44.5t45.5 18.5t45.5 -18.5t18.5 -44.5q0 -27 -18.5 -45.5t-45.5 -18.5t-45.5 18.5z" />
    <glyph glyph-name="slash" unicode="/" horiz-adv-x="300" 
d="M220 716h78l-218 -716h-78z" />
    <glyph glyph-name="zero" unicode="0" horiz-adv-x="645" 
d="M178.5 31.5q-62.5 47.5 -96 129t-33.5 181.5t33.5 181.5t95.5 129t144 47.5t144 -47.5t96 -129t34 -181.5t-34 -181.5t-96.5 -129t-143.5 -47.5t-143.5 47.5zM421 101.5q42 36.5 65 99.5t23 141t-23 141t-65 99.5t-99 36.5t-99 -36.5t-64.5 -99.5t-22.5 -141t22.5 -141
t64.5 -99.5t99 -36.5t99 36.5z" />
    <glyph glyph-name="one" unicode="1" horiz-adv-x="380" 
d="M209 565l-120 -86l-44 65l195 140h54v-684h-85v565z" />
    <glyph glyph-name="two" unicode="2" horiz-adv-x="526" 
d="M45 85q196 197 251 257q51 55 69 86t18 75q0 29 -15 56t-44.5 43.5t-70.5 16.5q-54 0 -87 -31.5t-43 -68.5l-77 31q9 32 35 66.5t70 59t104 24.5q63 0 111.5 -27t75.5 -72t27 -97q0 -105 -110 -217l-205 -206h323v-81h-432v85z" />
    <glyph glyph-name="three" unicode="3" horiz-adv-x="535" 
d="M173 2q-45 18 -81.5 56.5t-52.5 96.5l77 32q16 -58 54.5 -90t90.5 -32q38 0 71 16.5t52.5 46t19.5 65.5q0 35 -19.5 64t-53 45.5t-73.5 16.5h-59v79h53q55 0 92 31.5t37 83.5q0 48 -36 77t-89 29q-52 0 -81.5 -27t-42.5 -66l-78 33q18 54 69.5 97.5t132.5 43.5
q60 0 108 -24t75.5 -67t27.5 -96t-27 -90t-67 -58v-4q51 -21 84 -64.5t33 -102.5q0 -60 -30.5 -108t-83 -75t-115.5 -27q-43 0 -88 18z" />
    <glyph glyph-name="four" unicode="4" horiz-adv-x="593" 
d="M373 147h-328v64l320 473h92v-457h88v-80h-88v-147h-84v147zM373 227v333h-4l-227 -333h231z" />
    <glyph glyph-name="five" unicode="5" horiz-adv-x="563" 
d="M179 4.5q-47 20.5 -83 62t-51 102.5l75 30q16 -61 56 -97.5t96 -36.5q67 0 109.5 41t42.5 107q0 65 -42 107.5t-108 42.5q-36 0 -68 -16.5t-52 -45.5l-86 38l44 345h354v-81h-284l-27 -207l4 -1q53 45 130 45q59 0 109.5 -29t80.5 -81t30 -116t-30.5 -116.5t-84 -83
t-120.5 -30.5q-48 0 -95 20.5z" />
    <glyph glyph-name="six" unicode="6" horiz-adv-x="557" 
d="M157.5 17q-53.5 33 -83 85.5t-29.5 110.5q0 55 22.5 105.5t64.5 112.5l179 269l68 -47l-172 -241l2 -2q35 24 88 24q52 0 102 -29t81.5 -79.5t31.5 -112.5q0 -60 -32 -112.5t-85.5 -84.5t-115.5 -32q-68 0 -121.5 33zM353 84.5q34 19.5 54 53t20 74.5q0 40 -20 73.5
t-54 53t-74 19.5t-74.5 -19.5t-54.5 -53t-20 -73.5q0 -41 20 -74.5t54.5 -53t74.5 -19.5t74 19.5z" />
    <glyph glyph-name="seven" unicode="7" horiz-adv-x="529" 
d="M77 23l319 580h-351v81h440v-87l-332 -613z" />
    <glyph glyph-name="eight" unicode="8" horiz-adv-x="551" 
d="M158 11q-53 27 -83 73.5t-30 103.5q0 58 31.5 101.5t82.5 68.5v4q-40 24 -65.5 63.5t-25.5 82.5q0 54 26.5 98t74 69t107.5 25q59 0 106.5 -25t74 -69t26.5 -98q0 -43 -25.5 -82.5t-64.5 -63.5v-4q51 -25 82.5 -68.5t31.5 -101.5q0 -57 -30.5 -103.5t-83.5 -73.5
t-117 -27q-65 0 -118 27zM363 429q34 31 34 81t-34.5 79.5t-86.5 29.5q-53 0 -87.5 -29.5t-34.5 -79.5t34.5 -81t87.5 -31t87 31zM378.5 100.5q41.5 35.5 41.5 92.5q0 55 -41.5 90.5t-102.5 35.5t-103 -35.5t-42 -90.5q0 -57 42 -92.5t103 -35.5t102.5 35.5z" />
    <glyph glyph-name="nine" unicode="9" horiz-adv-x="557" 
d="M178 31l172 241l-2 2q-35 -24 -88 -24q-52 0 -102 29t-81.5 79.5t-31.5 112.5q0 60 31.5 112.5t85 84.5t116.5 32q68 0 121.5 -33t83 -85.5t29.5 -110.5q0 -55 -22.5 -105.5t-64.5 -112.5l-179 -269zM352.5 345.5q34.5 19.5 54.5 53t20 73.5q0 41 -20 74.5t-54.5 53
t-74.5 19.5t-74 -19.5t-54 -53t-20 -74.5q0 -40 20 -73.5t54 -53t74 -19.5t74.5 19.5z" />
    <glyph glyph-name="colon" unicode=":" horiz-adv-x="238" 
d="M73.5 406.5q-18.5 18.5 -18.5 45.5t18.5 45.5t45.5 18.5t45.5 -18.5t18.5 -45.5t-18.5 -45.5t-45.5 -18.5t-45.5 18.5zM73.5 12.5q-18.5 18.5 -18.5 45.5q0 26 18.5 44.5t45.5 18.5t45.5 -18.5t18.5 -44.5q0 -27 -18.5 -45.5t-45.5 -18.5t-45.5 18.5z" />
    <glyph glyph-name="semicolon" unicode=";" horiz-adv-x="246" 
d="M79.5 406.5q-18.5 18.5 -18.5 45.5t18.5 45.5t45.5 18.5t45.5 -18.5t18.5 -45.5t-18.5 -45.5t-45.5 -18.5t-45.5 18.5zM56 -67l54 83q-18 3 -32.5 19t-14.5 39q0 26 18.5 44.5t45.5 18.5t45.5 -18.5t18.5 -44.5q0 -17 -7 -32.5t-21 -35.5l-66 -100z" />
    <glyph glyph-name="less" unicode="&#x3c;" horiz-adv-x="497" 
d="M55 240v62l383 184v-78l-294 -135v-4l294 -135v-78z" />
    <glyph glyph-name="equal" unicode="=" horiz-adv-x="568" 
d="M61 449h446v-70h-446v70zM61 259h446v-70h-446v70z" />
    <glyph glyph-name="greater" unicode="&#x3e;" horiz-adv-x="497" 
d="M59 134l293 135v4l-293 135v78l383 -184v-62l-383 -184v78z" />
    <glyph glyph-name="question" unicode="?" horiz-adv-x="504" 
d="M201 259q0 50 19 83t68 79q40 36 57.5 61.5t17.5 61.5q0 48 -31 77.5t-86 29.5q-50 0 -79.5 -28.5t-44.5 -70.5l-78 33q21 58 71.5 102.5t130.5 44.5q60 0 106 -24.5t71.5 -67.5t25.5 -96q0 -55 -27.5 -93.5t-70.5 -77.5q-33 -30 -48 -57t-15 -63v-42h-87v48zM199.5 12.5
q-18.5 18.5 -18.5 45.5q0 26 18.5 44.5t45.5 18.5q26 0 44.5 -18.5t18.5 -44.5q0 -27 -18.5 -45.5t-44.5 -18.5q-27 0 -45.5 18.5z" />
    <glyph glyph-name="at" unicode="@" horiz-adv-x="884" 
d="M245.5 -30q-89.5 52 -141 140.5t-51.5 193.5t51.5 193.5t141.5 140.5t198 52t196.5 -52t139.5 -140.5t51 -193.5q0 -91 -38.5 -149.5t-109.5 -58.5q-37 0 -66 20.5t-45 55.5q-24 -37 -60.5 -56.5t-82.5 -19.5q-53 0 -97.5 26t-70 72.5t-25.5 105.5q0 58 26 105t69.5 73
t94.5 26q39 0 72.5 -16.5t58.5 -45.5h4v48h67v-261q0 -29 15.5 -51t45.5 -22q42 0 58.5 44.5t16.5 103.5q0 88 -43 161t-116 115.5t-161 42.5t-161.5 -42.5t-116.5 -115.5t-43 -161t43 -161t116.5 -115.5t161.5 -42.5q71 0 127 28l27 -63q-70 -32 -154 -32q-109 0 -198.5 52
zM524.5 202.5q36.5 36.5 36.5 97.5t-36.5 97.5t-88.5 36.5t-89 -37t-37 -97t37 -97t89 -37t88.5 36.5z" />
    <glyph glyph-name="A" unicode="A" horiz-adv-x="670" 
d="M287 716h96l272 -716h-93l-72 197h-310l-72 -197h-93zM461 277l-96 258l-28 77h-4l-28 -77l-96 -258h252z" />
    <glyph glyph-name="B" unicode="B" horiz-adv-x="606" 
d="M80 716h257q54 0 101.5 -25t75.5 -69t28 -99q0 -52 -26.5 -91t-71.5 -60v-4q54 -18 88 -62t34 -103q0 -58 -29.5 -104.5t-79 -72.5t-106.5 -26h-271v716zM337 407q36 0 63.5 16.5t42.5 43t15 54.5q0 27 -14.5 53.5t-41 43.5t-61.5 17h-176v-228h172zM356 81q36 0 64.5 18
t44 46.5t15.5 58.5t-16 58.5t-45 46t-67 17.5h-187v-245h191z" />
    <glyph glyph-name="C" unicode="C" horiz-adv-x="741" 
d="M227 33q-85 49 -133.5 134.5t-48.5 190.5t48.5 190.5t133.5 134.5t189 49q80 0 146.5 -30t115.5 -87l-61 -59q-41 49 -89.5 72t-111.5 23q-78 0 -143 -36.5t-103.5 -103t-38.5 -153.5t38.5 -153.5t103.5 -103t143 -36.5q130 0 221 107l62 -60q-49 -59 -122.5 -93.5
t-160.5 -34.5q-104 0 -189 49z" />
    <glyph glyph-name="D" unicode="D" horiz-adv-x="703" 
d="M80 716h216q110 0 192 -45.5t126 -126.5t44 -186t-44 -186t-126 -126.5t-192 -45.5h-216v716zM296 81q127 0 201.5 73t74.5 204t-74.5 204t-201.5 73h-131v-554h131z" />
    <glyph glyph-name="E" unicode="E" horiz-adv-x="551" 
d="M80 716h414v-81h-329v-237h297v-80h-297v-237h329v-81h-414v716z" />
    <glyph glyph-name="F" unicode="F" horiz-adv-x="531" 
d="M80 716h414v-81h-329v-245h297v-80h-297v-310h-85v716z" />
    <glyph glyph-name="G" unicode="G" horiz-adv-x="813" 
d="M230 33q-85 49 -135 135t-50 190t50 190t135 135t186 49q79 0 148.5 -28t114.5 -79l-60 -61q-35 42 -88 64.5t-114 22.5q-75 0 -141 -36.5t-105.5 -103t-39.5 -153.5t39.5 -153.5t105.5 -103t141 -36.5q72 0 120.5 22.5t83.5 59.5q26 28 42 67.5t20 87.5h-265v79h344
q5 -28 5 -52q0 -66 -21 -128.5t-67 -109.5q-99 -107 -263 -107q-101 0 -186 49z" />
    <glyph glyph-name="H" unicode="H" horiz-adv-x="698" 
d="M80 716h85v-309h368v309h85v-716h-85v326h-368v-326h-85v716z" />
    <glyph glyph-name="I" unicode="I" horiz-adv-x="245" 
d="M80 716h85v-716h-85v716z" />
    <glyph glyph-name="J" unicode="J" horiz-adv-x="530" 
d="M109 27.5q-59 43.5 -83 122.5l80 33q36 -118 141 -118q59 0 94.5 41t35.5 108v502h85v-495q0 -75 -27.5 -128.5t-76 -81t-111.5 -27.5q-79 0 -138 43.5z" />
    <glyph glyph-name="K" unicode="K" horiz-adv-x="626" 
d="M80 716h85v-377h4l322 377h109v-4l-265 -306l284 -402v-4h-103l-238 341l-113 -131v-210h-85v716z" />
    <glyph glyph-name="L" unicode="L" horiz-adv-x="509" 
d="M80 716h85v-635h313v-81h-398v716z" />
    <glyph glyph-name="M" unicode="M" horiz-adv-x="866" 
d="M80 716h123l228 -587h4l228 587h123v-716h-84v455l4 136h-4l-234 -591h-70l-234 591h-4l4 -136v-455h-84v716z" />
    <glyph glyph-name="N" unicode="N" horiz-adv-x="708" 
d="M80 716h104l359 -570h4l-4 138v432h85v-716h-88l-375 597h-4l4 -138v-459h-85v716z" />
    <glyph glyph-name="O" unicode="O" horiz-adv-x="824" 
d="M225 34q-84 50 -132 136t-48 188t48 188t132 136t187 50t187 -50t132 -136t48 -188t-48 -188t-132 -136t-187 -50t-187 50zM553.5 102.5q64.5 37.5 102 104t37.5 151.5t-37.5 151.5t-102 104t-141.5 37.5t-141.5 -37.5t-102 -104t-37.5 -151.5t37.5 -151.5t102 -104
t141.5 -37.5t141.5 37.5z" />
    <glyph glyph-name="P" unicode="P" horiz-adv-x="576" 
d="M80 716h241q60 0 111 -27t81.5 -75.5t30.5 -109.5t-30.5 -109.5t-81.5 -75.5t-111 -27h-156v-292h-85v716zM323 373q40 0 70.5 19t47.5 49t17 63t-17 63t-47.5 49t-70.5 19h-158v-262h158z" />
    <glyph glyph-name="Q" unicode="Q" horiz-adv-x="824" 
d="M587 27q-81 -43 -175 -43q-103 0 -187 50t-132 135.5t-48 188.5q0 102 48 188t132 136t187 50t187 -50t132 -136t48 -188q0 -86 -33 -160t-94 -126l50 -74l-66 -43zM541 96l-87 130l66 45l86 -129q41 39 64 94.5t23 121.5q0 85 -37.5 151.5t-102 104t-141.5 37.5
t-141.5 -37.5t-102 -104t-37.5 -151.5q0 -84 38 -151t102 -104.5t141 -37.5q67 0 129 31z" />
    <glyph glyph-name="R" unicode="R" horiz-adv-x="586" 
d="M80 716h242q59 0 110 -27t81.5 -75.5t30.5 -109.5q0 -50 -22.5 -93t-62 -72t-87.5 -39l-2 -3l202 -293v-4h-100l-195 292h-112v-292h-85v716zM317 371q37 0 69.5 17t52 47.5t19.5 68.5q0 33 -17 63t-47.5 49t-70.5 19h-158v-264h152z" />
    <glyph glyph-name="S" unicode="S" horiz-adv-x="562" 
d="M175.5 6.5q-50.5 22.5 -89.5 66t-56 105.5l81 33q17 -64 63 -105t108 -41t105 33.5t43 91.5q0 50 -36.5 82.5t-119.5 60.5l-45 16q-76 27 -124 71t-48 122q0 51 28 94.5t78 69.5t112 26t108 -23t73.5 -56t38.5 -65l-79 -34q-11 37 -46.5 67t-93.5 30q-55 0 -94 -31
t-39 -78q0 -42 33 -68.5t100 -49.5l47 -16q91 -33 142 -82.5t51 -134.5q0 -69 -35.5 -116t-89.5 -69t-111 -22q-54 0 -104.5 22.5z" />
    <glyph glyph-name="T" unicode="T" horiz-adv-x="538" 
d="M227 635h-201v81h486v-81h-200v-635h-85v635z" />
    <glyph glyph-name="U" unicode="U" horiz-adv-x="653" 
d="M189 19.5q-60 35.5 -93 99t-33 146.5v451h85v-455q0 -87 46 -141.5t132 -54.5t132.5 54.5t46.5 141.5v455h85v-451q0 -83 -31.5 -147t-91.5 -99t-141 -35q-77 0 -137 35.5z" />
    <glyph glyph-name="V" unicode="V" horiz-adv-x="631" 
d="M14 716h94l177 -519l24 -71h4l25 71l185 519h94l-262 -716h-87z" />
    <glyph glyph-name="W" unicode="W" horiz-adv-x="944" 
d="M17 716h94l130 -526l12 -49h4l15 49l160 526h88l153 -526l15 -49h4l141 575h94l-193 -716h-88l-152 518l-16 56h-4l-17 -56l-158 -518h-88z" />
    <glyph glyph-name="X" unicode="X" horiz-adv-x="631" 
d="M260 370l-228 346h102l180 -279h4l180 279h101l-228 -346l242 -370h-100l-195 299h-4l-196 -299h-100z" />
    <glyph glyph-name="Y" unicode="Y" horiz-adv-x="595" 
d="M257 331l-242 385h99l183 -300h4l180 300h99l-238 -385v-331h-85v331z" />
    <glyph glyph-name="Z" unicode="Z" horiz-adv-x="572" 
d="M38 89l386 546h-370v81h468v-89l-386 -546h390v-81h-488v89z" />
    <glyph glyph-name="bracketleft" unicode="[" horiz-adv-x="318" 
d="M80 792h201v-70h-124v-776h124v-70h-201v916z" />
    <glyph glyph-name="backslash" unicode="\" horiz-adv-x="300" 
d="M220 0l-218 716h78l218 -716h-78z" />
    <glyph glyph-name="bracketright" unicode="]" horiz-adv-x="318" 
d="M37 -54h124v776h-124v70h201v-916h-201v70z" />
    <glyph glyph-name="asciicircum" unicode="^" horiz-adv-x="465" 
d="M199 716h67l187 -306h-89l-130 224h-4l-129 -224h-89z" />
    <glyph glyph-name="underscore" unicode="_" horiz-adv-x="476" 
d="M0 -146h476v-70h-476v70z" />
    <glyph glyph-name="grave" unicode="`" horiz-adv-x="397" 
d="M98 716h93l52 -127h-75z" />
    <glyph glyph-name="a" unicode="a" horiz-adv-x="531" 
d="M126 6q-44 22 -68 60.5t-24 87.5q0 81 61 126.5t154 45.5q46 0 85.5 -10t60.5 -23v31q0 57 -40 91.5t-101 34.5q-42 0 -78.5 -18.5t-57.5 -51.5l-64 48q30 46 83 72t117 26q104 0 163 -54.5t59 -148.5v-323h-81v73h-4q-22 -37 -66 -63t-99 -26q-56 0 -100 22zM314 81
q37 22 59 59t22 81q-24 16 -59 26t-74 10q-70 0 -105.5 -29t-35.5 -75q0 -42 32 -68t81 -26q43 0 80 22z" />
    <glyph glyph-name="b" unicode="b" horiz-adv-x="602" 
d="M217.5 10.5q-46.5 26.5 -69.5 64.5h-4v-75h-81v716h85v-211l-4 -71h4q23 39 69.5 65.5t104.5 26.5q69 0 124.5 -35t87.5 -97t32 -139q0 -78 -32 -139.5t-87.5 -96.5t-124.5 -35q-58 0 -104.5 26.5zM396 85q39 24 62 68t23 102t-23 102t-62 68t-83 24q-45 0 -83.5 -24
t-62 -68t-23.5 -102t23.5 -102t62 -68t83.5 -24q44 0 83 24z" />
    <glyph glyph-name="c" unicode="c" horiz-adv-x="546" 
d="M161 19.5q-59 35.5 -92 97t-33 138.5t33 139t92 97t133 35q83 0 139.5 -38.5t80.5 -102.5l-77 -32q-19 47 -56.5 71.5t-90.5 24.5q-45 0 -84 -24.5t-62.5 -68.5t-23.5 -101t23.5 -101t62.5 -68.5t84 -24.5q54 0 93 25t58 71l76 -32q-26 -63 -83.5 -102t-139.5 -39
q-74 0 -133 35.5z" />
    <glyph glyph-name="d" unicode="d" horiz-adv-x="602" 
d="M155.5 19q-55.5 35 -87.5 96.5t-32 139.5q0 77 32 139t87.5 97t124.5 35q58 0 104 -26.5t70 -65.5h4l-4 71v211h85v-716h-81v75h-4q-24 -38 -70 -64.5t-104 -26.5q-69 0 -124.5 35zM372.5 85q38.5 24 62 68t23.5 102t-23.5 102t-62 68t-83.5 24q-44 0 -83 -24
t-62.5 -68.5t-23.5 -101.5t23.5 -101.5t62.5 -68.5t83 -24q45 0 83.5 24z" />
    <glyph glyph-name="e" unicode="e" horiz-adv-x="563" 
d="M159 19q-58 35 -90.5 96.5t-32.5 138.5q0 73 30.5 135.5t87 99.5t129.5 37q75 0 130 -33.5t84.5 -92.5t29.5 -135q0 -12 -2 -26h-404q3 -58 28 -98t63.5 -60t80.5 -20q100 0 151 92l72 -35q-32 -61 -89 -97.5t-137 -36.5q-73 0 -131 35zM437 309q-2 32 -18 64t-50 54
t-86 22q-60 0 -102 -38.5t-55 -101.5h311z" />
    <glyph glyph-name="f" unicode="f" horiz-adv-x="379" 
d="M122 433h-94v77h94v55q0 48 22 84t59 55.5t82 19.5q43 0 75 -12v-83q-18 7 -34 11.5t-38 4.5q-33 0 -57 -23.5t-24 -65.5v-46h131v-77h-131v-433h-85v433z" />
    <glyph glyph-name="g" unicode="g" horiz-adv-x="597" 
d="M138.5 -190q-58.5 42 -78.5 101l78 33q16 -44 55.5 -71.5t93.5 -27.5q79 0 122.5 46t43.5 130v57h-4q-25 -39 -70.5 -63.5t-103.5 -24.5q-66 0 -120.5 34t-86.5 95t-32 139q0 77 32 138.5t86.5 95.5t120.5 34q58 0 103.5 -24.5t70.5 -64.5h4v73h81v-490
q0 -123 -68 -187.5t-179 -64.5q-90 0 -148.5 42zM370.5 90q37.5 23 60 66t22.5 102q0 60 -22.5 103t-60 65.5t-83.5 22.5t-84 -23t-60.5 -66t-22.5 -102t22.5 -102.5t60.5 -66t84 -22.5t83.5 23z" />
    <glyph glyph-name="h" unicode="h" horiz-adv-x="564" 
d="M63 716h85v-211l-4 -70h4q21 39 66.5 65t99.5 26q93 0 142 -54.5t49 -144.5v-327h-85v314q0 69 -35 102t-91 33q-40 0 -73.5 -24t-53 -62t-19.5 -79v-284h-85v716z" />
    <glyph glyph-name="i" unicode="i" horiz-adv-x="226" 
d="M70 622q-18 18 -18 43q0 26 18 43.5t43 17.5q26 0 43.5 -17.5t17.5 -43.5q0 -25 -17.5 -43t-43.5 -18q-25 0 -43 18zM71 510h85v-510h-85v510z" />
    <glyph glyph-name="j" unicode="j" horiz-adv-x="226" 
d="M70 622q-18 18 -18 43q0 26 18 43.5t43 17.5q26 0 43.5 -17.5t17.5 -43.5q0 -25 -17.5 -43t-43.5 -18q-25 0 -43 18zM-30 -219v81q8 -5 20 -8t22 -3q31 0 45 19.5t14 57.5v582h85v-582q0 -77 -37.5 -115.5t-103.5 -38.5q-24 0 -45 7z" />
    <glyph glyph-name="k" unicode="k" horiz-adv-x="505" 
d="M63 716h85v-450l240 244h108v-4l-200 -202l206 -300v-4h-102l-164 245l-88 -88v-157h-85v716z" />
    <glyph glyph-name="l" unicode="l" horiz-adv-x="211" 
d="M63 716h85v-716h-85v716z" />
    <glyph glyph-name="m" unicode="m" horiz-adv-x="876" 
d="M63 510h81v-75h4q22 39 66 65t93 26q56 0 97.5 -27t59.5 -72q27 45 71.5 72t103.5 27q88 0 132.5 -53.5t44.5 -145.5v-327h-84v314q0 71 -29 103t-86 32q-38 0 -69 -22t-48.5 -59t-17.5 -80v-288h-85v313q0 72 -29 104t-85 32q-38 0 -69 -22.5t-48.5 -60t-17.5 -80.5
v-286h-85v510z" />
    <glyph glyph-name="n" unicode="n" horiz-adv-x="561" 
d="M63 510h81v-75h4q21 38 67 64.5t98 26.5q92 0 140.5 -53.5t48.5 -145.5v-327h-85v314q0 71 -34 103t-93 32q-41 0 -73.5 -23t-50.5 -60.5t-18 -78.5v-287h-85v510z" />
    <glyph glyph-name="o" unicode="o" horiz-adv-x="596" 
d="M163 20q-60 36 -93.5 98t-33.5 137t33.5 137t93.5 98t135 36t135 -36t93.5 -98t33.5 -137t-33.5 -137t-93.5 -98t-135 -36t-135 36zM385.5 84.5q40.5 23.5 65 67.5t24.5 103t-24.5 103t-65 67.5t-87.5 23.5t-88 -23.5t-65.5 -67.5t-24.5 -103t24.5 -103t65.5 -67.5
t88 -23.5t87.5 23.5z" />
    <glyph glyph-name="p" unicode="p" horiz-adv-x="598" 
d="M59 510h81v-76h4q23 39 69.5 65.5t104.5 26.5q69 0 124.5 -35t87.5 -97t32 -139q0 -78 -32 -139.5t-87.5 -96.5t-124.5 -35q-58 0 -104.5 26.5t-69.5 64.5h-4l4 -70v-221h-85v726zM392 85q39 24 62 68t23 102t-23 102t-62 68t-83 24q-45 0 -83.5 -24t-62 -68t-23.5 -102
t23.5 -102t62 -68t83.5 -24q44 0 83 24z" />
    <glyph glyph-name="q" unicode="q" horiz-adv-x="598" 
d="M454 5l4 70h-4q-24 -38 -70 -64.5t-104 -26.5q-69 0 -124.5 35t-87.5 96.5t-32 139.5q0 77 32 139t87.5 97t124.5 35q58 0 104 -26.5t70 -65.5h4v76h81v-726h-85v221zM372.5 85q38.5 24 62 68t23.5 102t-23.5 102t-62 68t-83.5 24q-44 0 -83 -24t-62.5 -68.5
t-23.5 -101.5t23.5 -101.5t62.5 -68.5t83 -24q45 0 83.5 24z" />
    <glyph glyph-name="r" unicode="r" horiz-adv-x="375" 
d="M63 510h81v-82h4q15 42 58 69.5t90 27.5q35 0 60 -10v-92q-32 16 -72 16q-37 0 -68 -21t-49.5 -56.5t-18.5 -76.5v-285h-85v510z" />
    <glyph glyph-name="s" unicode="s" horiz-adv-x="473" 
d="M104 22.5q-55 38.5 -78 98.5l76 34q19 -46 56.5 -71t82.5 -25q48 0 82 19.5t34 55.5q0 32 -27 51.5t-85 33.5l-62 16q-61 15 -100 51t-39 93q0 44 26.5 77.5t70.5 51.5t95 18q67 0 119.5 -29t74.5 -81l-74 -34q-34 68 -121 68q-42 0 -73.5 -19.5t-31.5 -49.5
q0 -28 22 -45.5t66 -28.5l74 -19q75 -19 113 -56.5t38 -91.5q0 -47 -27 -82.5t-73 -54.5t-102 -19q-82 0 -137 38.5z" />
    <glyph glyph-name="t" unicode="t" horiz-adv-x="366" 
d="M201.5 2q-26.5 10 -44.5 27q-40 38 -40 105v299h-89v77h89v144h85v-144h125v-77h-125v-278q0 -42 16 -62q19 -22 55 -22q31 0 56 17v-83q-15 -7 -30.5 -10t-39.5 -3q-31 0 -57.5 10z" />
    <glyph glyph-name="u" unicode="u" horiz-adv-x="561" 
d="M107.5 38q-48.5 54 -48.5 151v321h85v-308q0 -73 33 -107t89 -34q43 0 76.5 23t52 60t18.5 78v288h85v-510h-81v74h-4q-21 -38 -67 -64t-98 -26q-92 0 -140.5 54z" />
    <glyph glyph-name="v" unicode="v" horiz-adv-x="514" 
d="M7 510h91l158 -410h2l160 410h89l-208 -510h-86z" />
    <glyph glyph-name="w" unicode="w" horiz-adv-x="777" 
d="M7 510h88l121 -403h1l129 403h87l129 -402h1l121 402h86l-165 -510h-86l-132 407l-131 -407h-85z" />
    <glyph glyph-name="x" unicode="x" horiz-adv-x="487" 
d="M193 259l-176 251h96l131 -189l127 189h100l-179 -251l182 -259h-99l-132 196l-131 -196h-99z" />
    <glyph glyph-name="y" unicode="y" horiz-adv-x="516" 
d="M219 32l-211 478h92l160 -379h2l154 379h92l-315 -726h-88z" />
    <glyph glyph-name="z" unicode="z" horiz-adv-x="487" 
d="M37 73l301 360h-292v77h396v-73l-301 -360h309v-77h-413v73z" />
    <glyph glyph-name="braceleft" unicode="{" horiz-adv-x="313" 
d="M141 -79.5q-44 44.5 -44 118.5v175q0 41 -20.5 63t-53.5 22v70q33 0 53.5 22t20.5 63v175q0 74 44 118.5t119 44.5h22v-70h-21q-38 0 -62 -26t-24 -70v-175q0 -47 -17 -75t-51 -40v-4q34 -12 51 -39.5t17 -75.5v-175q0 -44 24 -70t62 -26h21v-70h-22q-75 0 -119 44.5z
" />
    <glyph glyph-name="bar" unicode="|" horiz-adv-x="237" 
d="M80 792h77v-912h-77v912z" />
    <glyph glyph-name="braceright" unicode="}" horiz-adv-x="313" 
d="M31 -54h21q38 0 62.5 26t24.5 70v175q0 48 16.5 75.5t50.5 39.5v4q-34 12 -50.5 40t-16.5 75v175q0 44 -24.5 70t-62.5 26h-21v70h22q75 0 119 -44.5t44 -118.5v-175q0 -41 20.5 -63t53.5 -22v-70q-33 0 -53.5 -22t-20.5 -63v-175q0 -74 -44 -118.5t-119 -44.5h-22v70z
" />
    <glyph glyph-name="asciitilde" unicode="~" horiz-adv-x="536" 
d="M327.5 245.5q-28.5 9.5 -70.5 27.5q-37 16 -59.5 23.5t-39.5 7.5q-23 0 -37.5 -16.5t-16.5 -38.5h-67q0 39 17 69t44.5 46t57.5 16q25 0 53 -9.5t72 -27.5q36 -16 58 -23.5t39 -7.5q23 0 37.5 16.5t16.5 38.5h67q0 -39 -17.5 -69t-44.5 -46t-58 -16q-23 0 -51.5 9.5z" />
    <glyph glyph-name="uni00A0" unicode="&#xa0;" horiz-adv-x="232" 
d="M0 0z" />
    <glyph glyph-name="exclamdown" unicode="&#xa1;" horiz-adv-x="238" 
d="M73.5 416.5q-18.5 18.5 -18.5 45.5t18.5 45.5t45.5 18.5t45.5 -18.5t18.5 -45.5t-18.5 -45.5t-45.5 -18.5t-45.5 18.5zM77 27l9 277h65l10 -277v-243h-84v243z" />
    <glyph glyph-name="cent" unicode="&#xa2;" horiz-adv-x="531" 
d="M432.5 130.5q-46.5 -37.5 -113.5 -45.5v-85h-70v85q-62 9 -110.5 44.5t-75.5 90.5t-27 122t27 122.5t75.5 91t110.5 43.5v85h70v-85q67 -8 112 -45t68 -92l-77 -32q-31 76 -103 92v-360q37 8 64.5 32t43.5 60l75 -32q-23 -54 -69.5 -91.5zM157.5 224q37.5 -49 91.5 -62
v360q-54 -13 -91.5 -62t-37.5 -118t37.5 -118z" />
    <glyph glyph-name="sterling" unicode="&#xa3;" horiz-adv-x="525" 
d="M505 111q-42 -111 -158 -111h-309v73q49 22 74.5 63t25.5 89q0 8 -2 24h-97v71h70q-2 4 -17 29q-26 44 -39.5 77.5t-13.5 76.5q0 52 25.5 97.5t72 72.5t106.5 27q80 0 129 -42.5t68 -98.5l-78 -32q-12 39 -41.5 65.5t-77.5 26.5q-55 0 -87.5 -35t-32.5 -81
q0 -34 12 -62.5t37 -69.5q4 -7 14 -22q9 -16 15 -29h138v-71h-118v-11q0 -42 -16.5 -82.5t-46.5 -71.5l4 -3h185q38 0 57.5 14.5t30.5 44.5z" />
    <glyph glyph-name="currency" unicode="&#xa4;" horiz-adv-x="611" 
d="M68 143l60 58q-38 59 -38 124q0 66 38 124l-60 59l50 50l59 -57q56 43 129 43q72 0 128 -43l59 57l50 -50l-59 -58q37 -58 37 -125q0 -66 -37 -124l59 -58l-50 -50l-59 57q-27 -21 -60 -32.5t-68 -11.5q-72 0 -129 44l-59 -57zM374.5 199.5q31.5 19.5 50 53t18.5 72.5
t-18.5 72.5t-50 53t-68.5 19.5q-38 0 -69.5 -19.5t-50 -53t-18.5 -72.5t18.5 -72.5t50 -53t69.5 -19.5q37 0 68.5 19.5z" />
    <glyph glyph-name="yen" unicode="&#xa5;" horiz-adv-x="572" 
d="M246 169h-171v70h171v85h-171v70h126l-186 290h97l140 -232l34 -57h4l33 57l137 232h97l-183 -290h123v-70h-167v-85h167v-70h-167v-169h-84v169z" />
    <glyph glyph-name="brokenbar" unicode="&#xa6;" horiz-adv-x="237" 
d="M80 756h77v-380h-77v380zM80 292h77v-412h-77v412z" />
    <glyph glyph-name="section" unicode="&#xa7;" horiz-adv-x="546" 
d="M498 -42q0 -59 -32 -102t-83 -65.5t-106 -22.5q-78 0 -142 49.5t-87 140.5l79 32q17 -63 55.5 -102t94.5 -39t95 30.5t39 76.5q0 51 -38.5 82.5t-126.5 58.5q-89 28 -132 71.5t-43 108.5q0 41 22.5 77.5t63.5 60.5q-88 53 -88 144q0 42 24 82t70.5 65.5t109.5 25.5
q53 0 96 -22.5t70 -56t37 -66.5l-78 -32q-11 36 -43.5 66t-79.5 30q-35 0 -62.5 -13t-42.5 -34.5t-15 -44.5q0 -37 30 -61t96 -46q104 -33 160.5 -79.5t56.5 -132.5q0 -43 -18.5 -80t-49.5 -59q68 -55 68 -143zM186 218q29 -24 94 -45q43 -13 83 -31q22 15 35.5 42t13.5 52
q0 52 -38.5 82.5t-127.5 58.5l-7 2q-37 -11 -59.5 -40t-22.5 -59q0 -38 29 -62z" />
    <glyph glyph-name="dieresis" unicode="&#xa8;" horiz-adv-x="392" 
d="M76 621.5q-16 16.5 -16 37.5q0 23 16 38.5t38 15.5q23 0 38 -15.5t15 -38.5q0 -22 -15 -38t-38 -16q-22 0 -38 16.5zM240.5 621.5q-16.5 16.5 -16.5 37.5q0 23 16 38.5t38 15.5q23 0 38.5 -15.5t15.5 -38.5q0 -22 -15.5 -38t-38.5 -16q-21 0 -37.5 16.5z" />
    <glyph glyph-name="copyright" unicode="&#xa9;" horiz-adv-x="530" 
d="M150 303q-53 31 -84 84t-31 115t31 115t84 84t115 31t115 -31t84 -84t31 -115t-31 -115t-84 -84t-115 -31t-115 31zM357.5 343q42.5 25 67.5 67.5t25 91.5q0 50 -25 92.5t-67.5 67t-92.5 24.5q-49 0 -91.5 -24.5t-67.5 -67t-25 -92.5q0 -49 25 -91.5t67.5 -67.5t91.5 -25
q50 0 92.5 25zM185 418q-34 35 -34 84q0 50 34 84.5t84 34.5q28 0 48 -10t39 -29l-31 -28q-11 13 -23.5 19t-32.5 6q-30 0 -52 -22.5t-22 -54.5t22 -54.5t52 -22.5q37 0 61 32l33 -26q-36 -48 -94 -48q-50 0 -84 35z" />
    <glyph glyph-name="ordfeminine" unicode="&#xaa;" horiz-adv-x="474" 
d="M124 290.5q-38 18.5 -60.5 52t-22.5 76.5q0 69 54.5 108t134.5 39q39 0 72.5 -9.5t52.5 -20.5v16q0 50 -33 79t-81 29q-39 0 -65 -13.5t-43 -43.5l-72 35q19 39 63.5 66.5t113.5 27.5q54 0 98.5 -21.5t70.5 -63t26 -99.5v-262h-78v66h-4q-20 -35 -57.5 -57.5t-86.5 -22.5
q-45 0 -83 18.5zM284.5 359q31.5 17 51 46.5t19.5 66.5q-1 1 -12.5 9t-38.5 15.5t-57 7.5q-61 0 -91.5 -24.5t-30.5 -64.5q0 -35 28 -54t66 -19q34 0 65.5 17z" />
    <glyph glyph-name="guillemotleft" unicode="&#xab;" horiz-adv-x="548" 
d="M37 271l200 217l50 -46l-161 -171l161 -171l-50 -46zM237 271l200 217l50 -46l-161 -171l161 -171l-50 -46z" />
    <glyph glyph-name="logicalnot" unicode="&#xac;" horiz-adv-x="573" 
d="M418 312h-363v70h431v-277h-68v207z" />
    <glyph glyph-name="uni00AD" unicode="&#xad;" horiz-adv-x="441" 
d="M62 345h317v-70h-317v70z" />
    <glyph glyph-name="registered" unicode="&#xae;" horiz-adv-x="530" 
d="M150 303q-53 31 -84 84t-31 115t31 115t84 84t115 31t115 -31t84 -84t31 -115t-31 -115t-84 -84t-115 -31t-115 31zM357.5 343q42.5 25 67.5 67.5t25 91.5q0 50 -25 92.5t-67.5 67t-92.5 24.5q-49 0 -91.5 -24.5t-67.5 -67t-25 -92.5q0 -49 25 -91.5t67.5 -67.5t91.5 -25
q50 0 92.5 25zM189 615h95q29 0 51 -21t22 -51q0 -23 -14.5 -41t-35.5 -24l-2 -2l60 -85v-2h-50l-56 85h-26v-85h-44v226zM280 514q13 0 23 8t10 21q0 12 -9 21t-23 9h-48v-59h47z" />
    <glyph glyph-name="macron" unicode="&#xaf;" horiz-adv-x="399" 
d="M61 692h277v-66h-277v66z" />
    <glyph glyph-name="degree" unicode="&#xb0;" horiz-adv-x="323" 
d="M96.5 459.5q-30.5 17.5 -48 47t-17.5 64.5t17.5 65t48 47t65.5 17t64.5 -17t47 -47t17.5 -65t-17.5 -64.5t-47 -47t-64.5 -17.5t-65.5 17.5zM209 521.5q19 20.5 19 49.5t-19 49.5t-47 20.5t-48 -20.5t-20 -49.5t20 -49.5t48 -20.5t47 20.5z" />
    <glyph glyph-name="plusminus" unicode="&#xb1;" horiz-adv-x="544" 
d="M237 299h-182v70h182v157h70v-157h182v-70h-182v-157h-70v157zM55 70h434v-70h-434v70z" />
    <glyph glyph-name="uni00B2" unicode="&#xb2;" horiz-adv-x="302" 
d="M23 406l135 135q21 22 32.5 39t11.5 37t-16 34t-40 14t-41.5 -15.5t-23.5 -45.5l-60 25q10 44 45 69.5t79 25.5q50 0 86.5 -29.5t36.5 -77.5q0 -31 -18 -58t-44 -53l-97 -97h161v-59h-247v56z" />
    <glyph glyph-name="uni00B3" unicode="&#xb3;" horiz-adv-x="322" 
d="M71 367q-37 25 -49 74l60 23q8 -32 28.5 -47.5t45.5 -15.5q26 0 45.5 16.5t19.5 41.5q0 24 -18.5 38.5t-45.5 14.5h-41v56h36q25 0 40.5 14t15.5 36q0 21 -15.5 34t-37.5 13q-44 0 -62 -45l-57 23q13 37 43.5 59t75.5 22q53 0 86.5 -29.5t33.5 -75.5t-46 -76
q58 -32 58 -84q0 -53 -38.5 -85t-92.5 -32q-48 0 -85 25z" />
    <glyph glyph-name="acute" unicode="&#xb4;" horiz-adv-x="397" 
d="M207 716h93l-71 -127h-74z" />
    <glyph glyph-name="uni00B5" unicode="&#xb5;" horiz-adv-x="561" 
d="M59 510h85v-305q0 -74 33.5 -109t88.5 -35q43 0 76.5 23t52 60.5t18.5 78.5v287h85v-510h-81v74h-4q-23 -39 -66.5 -64.5t-98.5 -25.5q-30 0 -57.5 12.5t-46.5 32.5h-4l4 -60v-185h-85v726z" />
    <glyph glyph-name="paragraph" unicode="&#xb6;" horiz-adv-x="614" 
d="M292 296h-44q-61 0 -112.5 25.5t-82 73.5t-30.5 111t30.5 111t82 73.5t112.5 25.5h288v-932h-78v851h-89v-851h-77v512z" />
    <glyph glyph-name="periodcentered" unicode="&#xb7;" horiz-adv-x="183" 
d="M46.5 278.5q-18.5 18.5 -18.5 45.5t18.5 45.5t45.5 18.5q26 0 44.5 -18.5t18.5 -45.5t-18.5 -45.5t-44.5 -18.5q-27 0 -45.5 18.5z" />
    <glyph glyph-name="cedilla" unicode="&#xb8;" horiz-adv-x="403" 
d="M108.5 -218q-25.5 19 -36.5 48l50 22q5 -15 16.5 -25.5t27.5 -10.5q20 0 32 12.5t12 30.5q0 19 -12 32t-32 13q-21 0 -35 -17l-44 20l35 93h53l-22 -49q18 3 23 3q38 0 64.5 -27t26.5 -68q0 -40 -29 -68t-72 -28q-32 0 -57.5 19z" />
    <glyph glyph-name="uni00B9" unicode="&#xb9;" horiz-adv-x="239" 
d="M112 632l-52 -43l-37 48l98 79h56v-366h-65v282z" />
    <glyph glyph-name="ordmasculine" unicode="&#xba;" horiz-adv-x="515" 
d="M144.5 302q-50.5 30 -79 82.5t-28.5 117.5t28.5 117.5t79 82.5t113.5 30t113.5 -30t79 -82.5t28.5 -117.5t-28.5 -117.5t-79 -82.5t-113.5 -30t-113.5 30zM326 366q32 20 51.5 55.5t19.5 80.5t-19.5 80.5t-51.5 55.5t-68 20q-37 0 -69 -20t-51.5 -55.5t-19.5 -80.5
t19.5 -80.5t51.5 -55.5t69 -20q36 0 68 20z" />
    <glyph glyph-name="guillemotright" unicode="&#xbb;" horiz-adv-x="548" 
d="M57 100l160 171l-160 171l50 46l200 -217l-200 -217zM257 100l160 171l-160 171l50 46l200 -217l-200 -217z" />
    <glyph glyph-name="onequarter" unicode="&#xbc;" horiz-adv-x="732" 
d="M137 632l-52 -43l-37 48l98 79h56v-366h-65v282zM100 28l466 695l53 -36l-466 -694zM562 74h-172v44l176 248h61v-236h49v-56h-49v-74h-65v74zM562 130v137h-4l-98 -137h102z" />
    <glyph glyph-name="onehalf" unicode="&#xbd;" horiz-adv-x="774" 
d="M137 632l-52 -43l-37 48l98 79h56v-366h-65v282zM92 28l466 695l53 -36l-466 -694zM469 56l135 135q21 22 32.5 39t11.5 37t-16 34t-40 14t-41.5 -15.5t-23.5 -45.5l-60 25q10 44 45 69.5t79 25.5q50 0 86.5 -29.5t36.5 -77.5q0 -31 -18 -58t-44 -53l-97 -97h161v-59
h-247v56z" />
    <glyph glyph-name="threequarters" unicode="&#xbe;" horiz-adv-x="825" 
d="M97 367q-37 25 -49 74l60 23q8 -32 28.5 -47.5t45.5 -15.5q26 0 45.5 16.5t19.5 41.5q0 24 -18.5 38.5t-45.5 14.5h-41v56h36q25 0 40.5 14t15.5 36q0 21 -15.5 34t-37.5 13q-44 0 -62 -45l-57 23q13 37 43.5 59t75.5 22q53 0 86.5 -29.5t33.5 -75.5t-46 -76
q58 -32 58 -84q0 -53 -38.5 -85t-92.5 -32q-48 0 -85 25zM180 28l466 695l53 -36l-466 -694zM655 74h-172v44l176 248h61v-236h49v-56h-49v-74h-65v74zM655 130v137h-4l-98 -137h102z" />
    <glyph glyph-name="questiondown" unicode="&#xbf;" horiz-adv-x="494" 
d="M205.5 416.5q-18.5 18.5 -18.5 45.5t18.5 45.5t45.5 18.5t45.5 -18.5t18.5 -45.5t-18.5 -45.5t-45.5 -18.5t-45.5 18.5zM144 -207.5q-46 24.5 -71.5 67.5t-25.5 96q0 38 16 70.5t34.5 53.5t46.5 47q33 30 48.5 57t15.5 63v57h86v-63q0 -50 -18.5 -83.5t-68.5 -78.5
q-39 -37 -56.5 -62t-17.5 -61q0 -48 31 -77.5t86 -29.5q50 0 79.5 28.5t43.5 70.5l79 -33q-20 -58 -71 -102.5t-131 -44.5q-60 0 -106 24.5z" />
    <glyph glyph-name="Agrave" unicode="&#xc0;" horiz-adv-x="670" 
d="M287 716h96l272 -716h-93l-72 197h-310l-72 -197h-93zM461 277l-96 258l-28 77h-4l-28 -77l-96 -258h252zM228 900h93l52 -127h-75z" />
    <glyph glyph-name="Aacute" unicode="&#xc1;" horiz-adv-x="670" 
d="M287 716h96l272 -716h-93l-72 197h-310l-72 -197h-93zM461 277l-96 258l-28 77h-4l-28 -77l-96 -258h252zM350 900h93l-71 -127h-74z" />
    <glyph glyph-name="Acircumflex" unicode="&#xc2;" horiz-adv-x="670" 
d="M287 716h96l272 -716h-93l-72 197h-310l-72 -197h-93zM461 277l-96 258l-28 77h-4l-28 -77l-96 -258h252zM196 784l102 116h75l102 -116v-5h-82l-54 63h-8l-53 -63h-82v5z" />
    <glyph glyph-name="Atilde" unicode="&#xc3;" horiz-adv-x="670" 
d="M287 716h96l272 -716h-93l-72 197h-310l-72 -197h-93zM461 277l-96 258l-28 77h-4l-28 -77l-96 -258h252zM357.5 787.5q-17.5 7.5 -42.5 21.5q-29 18 -40 18q-33 0 -36 -37h-70q0 38 16 63.5t41 38t50 12.5q31 0 80 -30q30 -17 39 -17q33 0 36 37h70q0 -55 -33.5 -84.5
t-74.5 -29.5q-18 0 -35.5 7.5z" />
    <glyph glyph-name="Adieresis" unicode="&#xc4;" horiz-adv-x="670" 
d="M287 716h96l272 -716h-93l-72 197h-310l-72 -197h-93zM461 277l-96 258l-28 77h-4l-28 -77l-96 -258h252zM215 805.5q-16 16.5 -16 37.5q0 23 16 38.5t38 15.5q23 0 38 -15.5t15 -38.5q0 -22 -15 -38t-38 -16q-22 0 -38 16.5zM379.5 805.5q-16.5 16.5 -16.5 37.5
q0 23 16 38.5t38 15.5q23 0 38.5 -15.5t15.5 -38.5q0 -22 -15.5 -38t-38.5 -16q-21 0 -37.5 16.5z" />
    <glyph glyph-name="Aring" unicode="&#xc5;" horiz-adv-x="669" 
d="M654 0h-93l-72 197h-309l-72 -197h-93l256 674q-18 15 -29 36.5t-11 45.5q0 43 30 73t73 30t73.5 -30t30.5 -73q0 -24 -10.5 -45t-29.5 -36zM304 787q-13 -13 -13 -31t13 -31t30 -13q18 0 31 13t13 31t-13 31t-31 13q-17 0 -30 -13zM460 277l-95 258l-29 77h-4l-28 -77
l-95 -258h251z" />
    <glyph glyph-name="AE" unicode="&#xc6;" horiz-adv-x="960" 
d="M439 716h464v-81h-329v-237h297v-80h-297v-237h329v-81h-414v197h-264l-118 -197h-100zM489 277v358h-4l-29 -50l-184 -308h217z" />
    <glyph glyph-name="Ccedilla" unicode="&#xc7;" horiz-adv-x="741" 
d="M579.5 19.5q-71.5 -34.5 -156.5 -35.5l-15 -33q18 3 23 3q38 0 64.5 -27t26.5 -68q0 -40 -29 -68t-72 -28q-32 0 -57.5 19t-36.5 48l50 22q5 -15 16.5 -25.5t27.5 -10.5q20 0 32 12.5t12 30.5q0 19 -12 32t-32 13q-21 0 -35 -17l-44 20l30 79q-94 10 -168.5 61.5
t-116.5 132.5t-42 178q0 105 48.5 190.5t133.5 134.5t189 49q80 0 146.5 -30t115.5 -87l-61 -59q-41 49 -89.5 72t-111.5 23q-78 0 -143 -36.5t-103.5 -103t-38.5 -153.5t38.5 -153.5t103.5 -103t143 -36.5q130 0 221 107l62 -60q-48 -58 -119.5 -92.5z" />
    <glyph glyph-name="Egrave" unicode="&#xc8;" horiz-adv-x="551" 
d="M80 716h414v-81h-329v-237h297v-80h-297v-237h329v-81h-414v716zM180 900h93l52 -127h-75z" />
    <glyph glyph-name="Eacute" unicode="&#xc9;" horiz-adv-x="551" 
d="M80 716h414v-81h-329v-237h297v-80h-297v-237h329v-81h-414v716zM302 900h93l-71 -127h-74z" />
    <glyph glyph-name="Ecircumflex" unicode="&#xca;" horiz-adv-x="551" 
d="M80 716h414v-81h-329v-237h297v-80h-297v-237h329v-81h-414v716zM148 784l102 116h75l102 -116v-5h-82l-54 63h-8l-53 -63h-82v5z" />
    <glyph glyph-name="Edieresis" unicode="&#xcb;" horiz-adv-x="551" 
d="M80 716h414v-81h-329v-237h297v-80h-297v-237h329v-81h-414v716zM167 805.5q-16 16.5 -16 37.5q0 23 16 38.5t38 15.5q23 0 38 -15.5t15 -38.5q0 -22 -15 -38t-38 -16q-22 0 -38 16.5zM331.5 805.5q-16.5 16.5 -16.5 37.5q0 23 16 38.5t38 15.5q23 0 38.5 -15.5
t15.5 -38.5q0 -22 -15.5 -38t-38.5 -16q-21 0 -37.5 16.5z" />
    <glyph glyph-name="Igrave" unicode="&#xcc;" horiz-adv-x="245" 
d="M80 716h85v-716h-85v716zM15 900h93l52 -127h-75z" />
    <glyph glyph-name="Iacute" unicode="&#xcd;" horiz-adv-x="245" 
d="M80 716h85v-716h-85v716zM137 900h93l-71 -127h-74z" />
    <glyph glyph-name="Icircumflex" unicode="&#xce;" horiz-adv-x="245" 
d="M80 716h85v-716h-85v716zM-17 784l102 116h75l102 -116v-5h-82l-54 63h-8l-53 -63h-82v5z" />
    <glyph glyph-name="Idieresis" unicode="&#xcf;" horiz-adv-x="245" 
d="M18 806q-16 16 -16 38q0 23 16 38.5t38 15.5q23 0 38.5 -15.5t15.5 -38.5q0 -22 -15.5 -38t-38.5 -16q-22 0 -38 16zM151 806q-16 16 -16 38q0 23 16 38.5t38 15.5q23 0 38 -15.5t15 -38.5q0 -22 -15 -38t-38 -16q-22 0 -38 16zM80 716h85v-716h-85v716z" />
    <glyph glyph-name="Eth" unicode="&#xd0;" horiz-adv-x="732" 
d="M109 322h-76v70h76v324h216q110 0 192 -45.5t126 -126.5t44 -186t-44 -186t-126 -126.5t-192 -45.5h-216v322zM325 81q127 0 201.5 73t74.5 204t-74.5 204t-201.5 73h-132v-243h204v-70h-204v-241h132z" />
    <glyph glyph-name="Ntilde" unicode="&#xd1;" horiz-adv-x="708" 
d="M80 716h104l359 -570h4l-4 138v432h85v-716h-88l-375 597h-4l4 -138v-459h-85v716zM376.5 787.5q-17.5 7.5 -42.5 21.5q-29 18 -40 18q-33 0 -36 -37h-70q0 38 16 63.5t41 38t50 12.5q31 0 80 -30q30 -17 39 -17q33 0 36 37h70q0 -55 -33.5 -84.5t-74.5 -29.5
q-18 0 -35.5 7.5z" />
    <glyph glyph-name="Ograve" unicode="&#xd2;" horiz-adv-x="824" 
d="M225 34q-84 50 -132 136t-48 188t48 188t132 136t187 50t187 -50t132 -136t48 -188t-48 -188t-132 -136t-187 -50t-187 50zM553.5 102.5q64.5 37.5 102 104t37.5 151.5t-37.5 151.5t-102 104t-141.5 37.5t-141.5 -37.5t-102 -104t-37.5 -151.5t37.5 -151.5t102 -104
t141.5 -37.5t141.5 37.5zM305 900h93l52 -127h-75z" />
    <glyph glyph-name="Oacute" unicode="&#xd3;" horiz-adv-x="824" 
d="M225 34q-84 50 -132 136t-48 188t48 188t132 136t187 50t187 -50t132 -136t48 -188t-48 -188t-132 -136t-187 -50t-187 50zM553.5 102.5q64.5 37.5 102 104t37.5 151.5t-37.5 151.5t-102 104t-141.5 37.5t-141.5 -37.5t-102 -104t-37.5 -151.5t37.5 -151.5t102 -104
t141.5 -37.5t141.5 37.5zM427 900h93l-71 -127h-74z" />
    <glyph glyph-name="Ocircumflex" unicode="&#xd4;" horiz-adv-x="824" 
d="M225 34q-84 50 -132 136t-48 188t48 188t132 136t187 50t187 -50t132 -136t48 -188t-48 -188t-132 -136t-187 -50t-187 50zM553.5 102.5q64.5 37.5 102 104t37.5 151.5t-37.5 151.5t-102 104t-141.5 37.5t-141.5 -37.5t-102 -104t-37.5 -151.5t37.5 -151.5t102 -104
t141.5 -37.5t141.5 37.5zM273 784l102 116h75l102 -116v-5h-82l-54 63h-8l-53 -63h-82v5z" />
    <glyph glyph-name="Otilde" unicode="&#xd5;" horiz-adv-x="824" 
d="M225 34q-84 50 -132 136t-48 188t48 188t132 136t187 50t187 -50t132 -136t48 -188t-48 -188t-132 -136t-187 -50t-187 50zM553.5 102.5q64.5 37.5 102 104t37.5 151.5t-37.5 151.5t-102 104t-141.5 37.5t-141.5 -37.5t-102 -104t-37.5 -151.5t37.5 -151.5t102 -104
t141.5 -37.5t141.5 37.5zM434.5 787.5q-17.5 7.5 -42.5 21.5q-29 18 -40 18q-33 0 -36 -37h-70q0 38 16 63.5t41 38t50 12.5q31 0 80 -30q30 -17 39 -17q33 0 36 37h70q0 -55 -33.5 -84.5t-74.5 -29.5q-18 0 -35.5 7.5z" />
    <glyph glyph-name="Odieresis" unicode="&#xd6;" horiz-adv-x="824" 
d="M225 34q-84 50 -132 136t-48 188t48 188t132 136t187 50t187 -50t132 -136t48 -188t-48 -188t-132 -136t-187 -50t-187 50zM553.5 102.5q64.5 37.5 102 104t37.5 151.5t-37.5 151.5t-102 104t-141.5 37.5t-141.5 -37.5t-102 -104t-37.5 -151.5t37.5 -151.5t102 -104
t141.5 -37.5t141.5 37.5zM292 805.5q-16 16.5 -16 37.5q0 23 16 38.5t38 15.5q23 0 38 -15.5t15 -38.5q0 -22 -15 -38t-38 -16q-22 0 -38 16.5zM456.5 805.5q-16.5 16.5 -16.5 37.5q0 23 16 38.5t38 15.5q23 0 38.5 -15.5t15.5 -38.5q0 -22 -15.5 -38t-38.5 -16
q-21 0 -37.5 16.5z" />
    <glyph glyph-name="multiply" unicode="&#xd7;" horiz-adv-x="546" 
d="M66 116l159 155l-159 155l47 47l160 -156l160 156l47 -47l-160 -155l160 -155l-47 -47l-160 156l-160 -156z" />
    <glyph glyph-name="Oslash" unicode="&#xd8;" horiz-adv-x="825" 
d="M742.5 525.5q37.5 -77.5 37.5 -167.5q0 -103 -48 -188.5t-132.5 -135.5t-187.5 -50q-91 0 -167 39l-37 -59l-58 37l37 59q-67 52 -104.5 129.5t-37.5 168.5q0 102 48 188t132 136t187 50q91 0 168 -40l38 61l58 -38l-37 -60q66 -52 103.5 -129.5zM157.5 229.5
q26.5 -58.5 73.5 -98.5l306 492q-59 28 -125 28q-77 0 -141 -37.5t-102 -104.5t-38 -151q0 -70 26.5 -128.5zM553.5 102.5q64.5 37.5 102 104t37.5 151.5q0 70 -26 128t-72 98l-307 -491q59 -28 124 -28q77 0 141.5 37.5z" />
    <glyph glyph-name="Ugrave" unicode="&#xd9;" horiz-adv-x="653" 
d="M189 19.5q-60 35.5 -93 99t-33 146.5v451h85v-455q0 -87 46 -141.5t132 -54.5t132.5 54.5t46.5 141.5v455h85v-451q0 -83 -31.5 -147t-91.5 -99t-141 -35q-77 0 -137 35.5zM219 900h93l52 -127h-75z" />
    <glyph glyph-name="Uacute" unicode="&#xda;" horiz-adv-x="653" 
d="M189 19.5q-60 35.5 -93 99t-33 146.5v451h85v-455q0 -87 46 -141.5t132 -54.5t132.5 54.5t46.5 141.5v455h85v-451q0 -83 -31.5 -147t-91.5 -99t-141 -35q-77 0 -137 35.5zM341 900h93l-71 -127h-74z" />
    <glyph glyph-name="Ucircumflex" unicode="&#xdb;" horiz-adv-x="653" 
d="M189 19.5q-60 35.5 -93 99t-33 146.5v451h85v-455q0 -87 46 -141.5t132 -54.5t132.5 54.5t46.5 141.5v455h85v-451q0 -83 -31.5 -147t-91.5 -99t-141 -35q-77 0 -137 35.5zM187 784l102 116h75l102 -116v-5h-82l-54 63h-8l-53 -63h-82v5z" />
    <glyph glyph-name="Udieresis" unicode="&#xdc;" horiz-adv-x="653" 
d="M189 19.5q-60 35.5 -93 99t-33 146.5v451h85v-455q0 -87 46 -141.5t132 -54.5t132.5 54.5t46.5 141.5v455h85v-451q0 -83 -31.5 -147t-91.5 -99t-141 -35q-77 0 -137 35.5zM206 805.5q-16 16.5 -16 37.5q0 23 16 38.5t38 15.5q23 0 38 -15.5t15 -38.5q0 -22 -15 -38
t-38 -16q-22 0 -38 16.5zM370.5 805.5q-16.5 16.5 -16.5 37.5q0 23 16 38.5t38 15.5q23 0 38.5 -15.5t15.5 -38.5q0 -22 -15.5 -38t-38.5 -16q-21 0 -37.5 16.5z" />
    <glyph glyph-name="Yacute" unicode="&#xdd;" horiz-adv-x="595" 
d="M257 331l-242 385h99l183 -300h4l180 300h99l-238 -385v-331h-85v331zM312 900h93l-71 -127h-74z" />
    <glyph glyph-name="Thorn" unicode="&#xde;" horiz-adv-x="576" 
d="M80 716h85v-123h156q60 0 111 -27t81.5 -75.5t30.5 -109.5t-30.5 -109.5t-81.5 -75.5t-111 -27h-156v-169h-85v716zM323 250q40 0 70.5 19t47.5 49t17 63t-17 63t-47.5 49t-70.5 19h-158v-262h158z" />
    <glyph glyph-name="germandbls" unicode="&#xdf;" horiz-adv-x="571" 
d="M249 -3v80q28 -4 55 -4q60 0 100.5 39t40.5 97q0 37 -20.5 68t-55 49t-73.5 18h-39v78h27q60 0 94.5 32.5t34.5 85.5q0 49 -35.5 80t-86.5 31q-59 0 -92.5 -36.5t-33.5 -98.5v-516h-86v516q0 62 25 111t73 77t114 28q60 0 107.5 -25t74 -68.5t26.5 -98.5q0 -106 -89 -151
v-4q53 -21 87 -66t34 -110q0 -62 -29 -111.5t-81 -77.5t-117 -28q-30 0 -55 5z" />
    <glyph glyph-name="agrave" unicode="&#xe0;" horiz-adv-x="531" 
d="M126 6q-44 22 -68 60.5t-24 87.5q0 81 61 126.5t154 45.5q46 0 85.5 -10t60.5 -23v31q0 57 -40 91.5t-101 34.5q-42 0 -78.5 -18.5t-57.5 -51.5l-64 48q30 46 83 72t117 26q104 0 163 -54.5t59 -148.5v-323h-81v73h-4q-22 -37 -66 -63t-99 -26q-56 0 -100 22zM314 81
q37 22 59 59t22 81q-24 16 -59 26t-74 10q-70 0 -105.5 -29t-35.5 -75q0 -42 32 -68t81 -26q43 0 80 22zM152 736h93l52 -127h-75z" />
    <glyph glyph-name="aacute" unicode="&#xe1;" horiz-adv-x="531" 
d="M126 6q-44 22 -68 60.5t-24 87.5q0 81 61 126.5t154 45.5q46 0 85.5 -10t60.5 -23v31q0 57 -40 91.5t-101 34.5q-42 0 -78.5 -18.5t-57.5 -51.5l-64 48q30 46 83 72t117 26q104 0 163 -54.5t59 -148.5v-323h-81v73h-4q-22 -37 -66 -63t-99 -26q-56 0 -100 22zM314 81
q37 22 59 59t22 81q-24 16 -59 26t-74 10q-70 0 -105.5 -29t-35.5 -75q0 -42 32 -68t81 -26q43 0 80 22zM274 736h93l-71 -127h-74z" />
    <glyph glyph-name="acircumflex" unicode="&#xe2;" horiz-adv-x="531" 
d="M126 6q-44 22 -68 60.5t-24 87.5q0 81 61 126.5t154 45.5q46 0 85.5 -10t60.5 -23v31q0 57 -40 91.5t-101 34.5q-42 0 -78.5 -18.5t-57.5 -51.5l-64 48q30 46 83 72t117 26q104 0 163 -54.5t59 -148.5v-323h-81v73h-4q-22 -37 -66 -63t-99 -26q-56 0 -100 22zM314 81
q37 22 59 59t22 81q-24 16 -59 26t-74 10q-70 0 -105.5 -29t-35.5 -75q0 -42 32 -68t81 -26q43 0 80 22zM120 619l102 117h75l102 -117v-5h-82l-54 64h-8l-53 -64h-82v5z" />
    <glyph glyph-name="atilde" unicode="&#xe3;" horiz-adv-x="531" 
d="M126 6q-44 22 -68 60.5t-24 87.5q0 81 61 126.5t154 45.5q46 0 85.5 -10t60.5 -23v31q0 57 -40 91.5t-101 34.5q-42 0 -78.5 -18.5t-57.5 -51.5l-64 48q30 46 83 72t117 26q104 0 163 -54.5t59 -148.5v-323h-81v73h-4q-22 -37 -66 -63t-99 -26q-56 0 -100 22zM314 81
q37 22 59 59t22 81q-24 16 -59 26t-74 10q-70 0 -105.5 -29t-35.5 -75q0 -42 32 -68t81 -26q43 0 80 22zM281.5 623.5q-17.5 7.5 -42.5 21.5q-29 18 -40 18q-33 0 -36 -37h-70q0 55 33 84t74 29q31 0 80 -30q30 -17 39 -17q33 0 36 37h70q0 -55 -33 -84t-75 -29
q-18 0 -35.5 7.5z" />
    <glyph glyph-name="adieresis" unicode="&#xe4;" horiz-adv-x="531" 
d="M126 6q-44 22 -68 60.5t-24 87.5q0 81 61 126.5t154 45.5q46 0 85.5 -10t60.5 -23v31q0 57 -40 91.5t-101 34.5q-42 0 -78.5 -18.5t-57.5 -51.5l-64 48q30 46 83 72t117 26q104 0 163 -54.5t59 -148.5v-323h-81v73h-4q-22 -37 -66 -63t-99 -26q-56 0 -100 22zM314 81
q37 22 59 59t22 81q-24 16 -59 26t-74 10q-70 0 -105.5 -29t-35.5 -75q0 -42 32 -68t81 -26q43 0 80 22zM139 641q-16 16 -16 38q0 23 16 38t38 15q23 0 38 -15t15 -38q0 -22 -15 -38t-38 -16q-22 0 -38 16zM303.5 641q-16.5 16 -16.5 38q0 23 16 38t38 15q23 0 38.5 -15
t15.5 -38q0 -22 -15.5 -38t-38.5 -16q-21 0 -37.5 16z" />
    <glyph glyph-name="aring" unicode="&#xe5;" horiz-adv-x="531" 
d="M126 6q-44 22 -68 60.5t-24 87.5q0 81 61 126.5t154 45.5q46 0 85.5 -10t60.5 -23v31q0 57 -40 91.5t-101 34.5q-42 0 -78.5 -18.5t-57.5 -51.5l-64 48q30 46 83 72t117 26q104 0 163 -54.5t59 -148.5v-323h-81v73h-4q-22 -37 -66 -63t-99 -26q-56 0 -100 22zM314 81
q37 22 59 59t22 81q-24 16 -59 26t-74 10q-70 0 -105.5 -29t-35.5 -75q0 -42 32 -68t81 -26q43 0 80 22zM186 618.5q-30 30.5 -30 73.5t30 73t73 30t73.5 -30t30.5 -73t-30.5 -73.5t-73.5 -30.5t-73 30.5zM292.5 658q13.5 14 13.5 34t-14 33.5t-33 13.5t-33 -14t-14 -33
q0 -20 14 -34t33 -14q20 0 33.5 14z" />
    <glyph glyph-name="ae" unicode="&#xe6;" horiz-adv-x="919" 
d="M126 6q-44 22 -68 60.5t-24 87.5q0 81 61 126.5t154 45.5q46 0 85.5 -10t60.5 -23v31q0 57 -38 91.5t-98 34.5q-41 0 -72 -19.5t-49 -53.5l-72 36q23 51 74.5 82t116.5 31q69 0 118.5 -26.5t74.5 -74.5q32 47 80 73.5t109 26.5q75 0 130 -33t84.5 -92t29.5 -135
q0 -12 -2 -26h-404q3 -58 28 -98t63.5 -60t81.5 -20q99 0 150 92l73 -35q-33 -62 -90 -98t-137 -36q-73 0 -129 34.5t-85 93.5q-72 -128 -206 -128q-56 0 -100 22zM793 309q-2 32 -18 64t-50 53.5t-86 21.5q-61 0 -102.5 -38t-54.5 -101h311zM314 81q37 22 59 59t22 81
q-22 15 -57.5 25.5t-75.5 10.5q-70 0 -105.5 -29t-35.5 -75q0 -42 32 -68t81 -26q43 0 80 22z" />
    <glyph glyph-name="ccedilla" unicode="&#xe7;" horiz-adv-x="546" 
d="M435 24q-56 -39 -137 -40l-15 -33q18 3 23 3q38 0 64.5 -27t26.5 -68q0 -40 -29 -68t-72 -28q-32 0 -57.5 19t-36.5 48l50 22q5 -15 16.5 -25.5t27.5 -10.5q20 0 32 12.5t12 30.5q0 19 -12 32t-32 13q-21 0 -35 -17l-44 20l30 81q-62 10 -110 47t-74.5 94t-26.5 126
q0 77 33 139t92 97t133 35q83 0 139.5 -38.5t80.5 -102.5l-77 -32q-19 47 -56.5 71.5t-90.5 24.5q-45 0 -84 -24.5t-62.5 -68.5t-23.5 -101t23.5 -101t62.5 -68.5t84 -24.5q54 0 93 25t58 71l76 -32q-26 -62 -82 -101z" />
    <glyph glyph-name="egrave" unicode="&#xe8;" horiz-adv-x="563" 
d="M159 19q-58 35 -90.5 96.5t-32.5 138.5q0 73 30.5 135.5t87 99.5t129.5 37q75 0 130 -33.5t84.5 -92.5t29.5 -135q0 -12 -2 -26h-404q3 -58 28 -98t63.5 -60t80.5 -20q100 0 151 92l72 -35q-32 -61 -89 -97.5t-137 -36.5q-73 0 -131 35zM437 309q-2 32 -18 64t-50 54
t-86 22q-60 0 -102 -38.5t-55 -101.5h311zM177 736h93l52 -127h-75z" />
    <glyph glyph-name="eacute" unicode="&#xe9;" horiz-adv-x="563" 
d="M159 19q-58 35 -90.5 96.5t-32.5 138.5q0 73 30.5 135.5t87 99.5t129.5 37q75 0 130 -33.5t84.5 -92.5t29.5 -135q0 -12 -2 -26h-404q3 -58 28 -98t63.5 -60t80.5 -20q100 0 151 92l72 -35q-32 -61 -89 -97.5t-137 -36.5q-73 0 -131 35zM437 309q-2 32 -18 64t-50 54
t-86 22q-60 0 -102 -38.5t-55 -101.5h311zM299 736h93l-71 -127h-74z" />
    <glyph glyph-name="ecircumflex" unicode="&#xea;" horiz-adv-x="563" 
d="M159 19q-58 35 -90.5 96.5t-32.5 138.5q0 73 30.5 135.5t87 99.5t129.5 37q75 0 130 -33.5t84.5 -92.5t29.5 -135q0 -12 -2 -26h-404q3 -58 28 -98t63.5 -60t80.5 -20q100 0 151 92l72 -35q-32 -61 -89 -97.5t-137 -36.5q-73 0 -131 35zM437 309q-2 32 -18 64t-50 54
t-86 22q-60 0 -102 -38.5t-55 -101.5h311zM145 619l102 117h75l102 -117v-5h-82l-54 64h-8l-53 -64h-82v5z" />
    <glyph glyph-name="edieresis" unicode="&#xeb;" horiz-adv-x="563" 
d="M159 19q-58 35 -90.5 96.5t-32.5 138.5q0 73 30.5 135.5t87 99.5t129.5 37q75 0 130 -33.5t84.5 -92.5t29.5 -135q0 -12 -2 -26h-404q3 -58 28 -98t63.5 -60t80.5 -20q100 0 151 92l72 -35q-32 -61 -89 -97.5t-137 -36.5q-73 0 -131 35zM437 309q-2 32 -18 64t-50 54
t-86 22q-60 0 -102 -38.5t-55 -101.5h311zM164 641q-16 16 -16 38q0 23 16 38t38 15q23 0 38 -15t15 -38q0 -22 -15 -38t-38 -16q-22 0 -38 16zM328.5 641q-16.5 16 -16.5 38q0 23 16 38t38 15q23 0 38.5 -15t15.5 -38q0 -22 -15.5 -38t-38.5 -16q-21 0 -37.5 16z" />
    <glyph glyph-name="igrave" unicode="&#xec;" horiz-adv-x="227" 
d="M71 510h85v-510h-85v510zM7 736h93l52 -127h-75z" />
    <glyph glyph-name="iacute" unicode="&#xed;" horiz-adv-x="227" 
d="M71 510h85v-510h-85v510zM129 736h93l-71 -127h-74z" />
    <glyph glyph-name="icircumflex" unicode="&#xee;" horiz-adv-x="227" 
d="M71 510h85v-510h-85v510zM-25 619l102 117h75l102 -117v-5h-82l-54 64h-8l-53 -64h-82v5z" />
    <glyph glyph-name="idieresis" unicode="&#xef;" horiz-adv-x="226" 
d="M9 641q-16 16 -16 38q0 23 16 38t38 15q23 0 38 -15t15 -38q0 -22 -15 -38t-38 -16q-22 0 -38 16zM142 641q-16 16 -16 38q0 23 16 38t38 15q23 0 38 -15t15 -38q0 -22 -15 -38t-38 -16q-22 0 -38 16zM71 510h84v-510h-84v510z" />
    <glyph glyph-name="eth" unicode="&#xf0;" horiz-adv-x="588" 
d="M169 19q-57 35 -90 93.5t-33 127.5q0 71 33.5 128.5t89 90t118.5 32.5q47 0 82.5 -17t54.5 -39l5 3q-17 42 -41 73t-59 58l-128 -56l-26 62l89 39q-57 31 -116 44l28 72q100 -29 171 -79l101 45l26 -62l-68 -30q68 -64 102 -152t34 -192q0 -81 -31.5 -143.5t-88 -97.5
t-129.5 -35q-67 0 -124 35zM375 87q37 22 58.5 62t21.5 90t-21.5 89.5t-58 62t-80.5 22.5q-45 0 -82.5 -22t-59 -62t-21.5 -90t21.5 -90t58.5 -62t81 -22q45 0 82 22z" />
    <glyph glyph-name="ntilde" unicode="&#xf1;" horiz-adv-x="561" 
d="M63 510h81v-75h4q21 38 67 64.5t98 26.5q92 0 140.5 -53.5t48.5 -145.5v-327h-85v314q0 71 -34 103t-93 32q-41 0 -73.5 -23t-50.5 -60.5t-18 -78.5v-287h-85v510zM315.5 623.5q-17.5 7.5 -42.5 21.5q-29 18 -40 18q-33 0 -36 -37h-70q0 55 33 84t74 29q31 0 80 -30
q30 -17 39 -17q33 0 36 37h70q0 -55 -33 -84t-75 -29q-18 0 -35.5 7.5z" />
    <glyph glyph-name="ograve" unicode="&#xf2;" horiz-adv-x="596" 
d="M163 20q-60 36 -93.5 98t-33.5 137t33.5 137t93.5 98t135 36t135 -36t93.5 -98t33.5 -137t-33.5 -137t-93.5 -98t-135 -36t-135 36zM385.5 84.5q40.5 23.5 65 67.5t24.5 103t-24.5 103t-65 67.5t-87.5 23.5t-88 -23.5t-65.5 -67.5t-24.5 -103t24.5 -103t65.5 -67.5
t88 -23.5t87.5 23.5zM191 736h93l52 -127h-75z" />
    <glyph glyph-name="oacute" unicode="&#xf3;" horiz-adv-x="596" 
d="M163 20q-60 36 -93.5 98t-33.5 137t33.5 137t93.5 98t135 36t135 -36t93.5 -98t33.5 -137t-33.5 -137t-93.5 -98t-135 -36t-135 36zM385.5 84.5q40.5 23.5 65 67.5t24.5 103t-24.5 103t-65 67.5t-87.5 23.5t-88 -23.5t-65.5 -67.5t-24.5 -103t24.5 -103t65.5 -67.5
t88 -23.5t87.5 23.5zM313 736h93l-71 -127h-74z" />
    <glyph glyph-name="ocircumflex" unicode="&#xf4;" horiz-adv-x="596" 
d="M163 20q-60 36 -93.5 98t-33.5 137t33.5 137t93.5 98t135 36t135 -36t93.5 -98t33.5 -137t-33.5 -137t-93.5 -98t-135 -36t-135 36zM385.5 84.5q40.5 23.5 65 67.5t24.5 103t-24.5 103t-65 67.5t-87.5 23.5t-88 -23.5t-65.5 -67.5t-24.5 -103t24.5 -103t65.5 -67.5
t88 -23.5t87.5 23.5zM159 619l102 117h75l102 -117v-5h-82l-54 64h-8l-53 -64h-82v5z" />
    <glyph glyph-name="otilde" unicode="&#xf5;" horiz-adv-x="596" 
d="M163 20q-60 36 -93.5 98t-33.5 137t33.5 137t93.5 98t135 36t135 -36t93.5 -98t33.5 -137t-33.5 -137t-93.5 -98t-135 -36t-135 36zM385.5 84.5q40.5 23.5 65 67.5t24.5 103t-24.5 103t-65 67.5t-87.5 23.5t-88 -23.5t-65.5 -67.5t-24.5 -103t24.5 -103t65.5 -67.5
t88 -23.5t87.5 23.5zM320.5 623.5q-17.5 7.5 -42.5 21.5q-29 18 -40 18q-33 0 -36 -37h-70q0 55 33 84t74 29q31 0 80 -30q30 -17 39 -17q33 0 36 37h70q0 -55 -33 -84t-75 -29q-18 0 -35.5 7.5z" />
    <glyph glyph-name="odieresis" unicode="&#xf6;" horiz-adv-x="596" 
d="M163 20q-60 36 -93.5 98t-33.5 137t33.5 137t93.5 98t135 36t135 -36t93.5 -98t33.5 -137t-33.5 -137t-93.5 -98t-135 -36t-135 36zM385.5 84.5q40.5 23.5 65 67.5t24.5 103t-24.5 103t-65 67.5t-87.5 23.5t-88 -23.5t-65.5 -67.5t-24.5 -103t24.5 -103t65.5 -67.5
t88 -23.5t87.5 23.5zM178 641q-16 16 -16 38q0 23 16 38t38 15q23 0 38 -15t15 -38q0 -22 -15 -38t-38 -16q-22 0 -38 16zM342.5 641q-16.5 16 -16.5 38q0 23 16 38t38 15q23 0 38.5 -15t15.5 -38q0 -22 -15.5 -38t-38.5 -16q-21 0 -37.5 16z" />
    <glyph glyph-name="divide" unicode="&#xf7;" horiz-adv-x="544" 
d="M226.5 413.5q-18.5 18.5 -18.5 44.5q0 27 18.5 45.5t45.5 18.5t45.5 -18.5t18.5 -45.5q0 -26 -18.5 -44.5t-45.5 -18.5t-45.5 18.5zM55 306h434v-70h-434v70zM226.5 38.5q-18.5 18.5 -18.5 45.5q0 26 18.5 44.5t45.5 18.5t45.5 -18.5t18.5 -44.5q0 -27 -18.5 -45.5
t-45.5 -18.5t-45.5 18.5z" />
    <glyph glyph-name="oslash" unicode="&#xf8;" horiz-adv-x="596" 
d="M535.5 373q24.5 -55 24.5 -118q0 -75 -33.5 -137t-93.5 -98t-135 -36q-62 0 -115 25l-26 -41l-55 31l28 44q-45 38 -69.5 92.5t-24.5 119.5q0 75 33.5 137t93.5 98t135 36q64 0 116 -26l27 43l54 -32l-28 -45q44 -38 68.5 -93zM134 175q14 -36 39 -62l199 319
q-36 17 -74 17q-47 0 -88 -23.5t-65.5 -67.5t-24.5 -103q0 -44 14 -80zM385.5 84.5q40.5 23.5 65 67.5t24.5 103q0 86 -52 141l-198 -319q33 -16 73 -16q47 0 87.5 23.5z" />
    <glyph glyph-name="ugrave" unicode="&#xf9;" horiz-adv-x="561" 
d="M107.5 38q-48.5 54 -48.5 151v321h85v-308q0 -73 33 -107t89 -34q43 0 76.5 23t52 60t18.5 78v288h85v-510h-81v74h-4q-21 -38 -67 -64t-98 -26q-92 0 -140.5 54zM171 736h93l52 -127h-75z" />
    <glyph glyph-name="uacute" unicode="&#xfa;" horiz-adv-x="561" 
d="M107.5 38q-48.5 54 -48.5 151v321h85v-308q0 -73 33 -107t89 -34q43 0 76.5 23t52 60t18.5 78v288h85v-510h-81v74h-4q-21 -38 -67 -64t-98 -26q-92 0 -140.5 54zM293 736h93l-71 -127h-74z" />
    <glyph glyph-name="ucircumflex" unicode="&#xfb;" horiz-adv-x="561" 
d="M107.5 38q-48.5 54 -48.5 151v321h85v-308q0 -73 33 -107t89 -34q43 0 76.5 23t52 60t18.5 78v288h85v-510h-81v74h-4q-21 -38 -67 -64t-98 -26q-92 0 -140.5 54zM139 619l102 117h75l102 -117v-5h-82l-54 64h-8l-53 -64h-82v5z" />
    <glyph glyph-name="udieresis" unicode="&#xfc;" horiz-adv-x="561" 
d="M107.5 38q-48.5 54 -48.5 151v321h85v-308q0 -73 33 -107t89 -34q43 0 76.5 23t52 60t18.5 78v288h85v-510h-81v74h-4q-21 -38 -67 -64t-98 -26q-92 0 -140.5 54zM158 641q-16 16 -16 38q0 23 16 38t38 15q23 0 38 -15t15 -38q0 -22 -15 -38t-38 -16q-22 0 -38 16z
M322.5 641q-16.5 16 -16.5 38q0 23 16 38t38 15q23 0 38.5 -15t15.5 -38q0 -22 -15.5 -38t-38.5 -16q-21 0 -37.5 16z" />
    <glyph glyph-name="yacute" unicode="&#xfd;" horiz-adv-x="516" 
d="M219 32l-211 478h92l160 -379h2l154 379h92l-315 -726h-88zM273 736h93l-71 -127h-74z" />
    <glyph glyph-name="thorn" unicode="&#xfe;" horiz-adv-x="599" 
d="M60 716h85v-214l-4 -68h4q24 39 70 65.5t104 26.5q69 0 124.5 -35t87.5 -97t32 -139q0 -78 -32 -139.5t-87.5 -96.5t-124.5 -35q-58 0 -104 26.5t-70 64.5h-4l4 -68v-223h-85v932zM393 85q39 24 62.5 68.5t23.5 101.5t-23.5 101.5t-62.5 68.5t-83 24q-45 0 -83.5 -24
t-62 -68t-23.5 -102t23.5 -102t62 -68t83.5 -24q44 0 83 24z" />
    <glyph glyph-name="ydieresis" unicode="&#xff;" horiz-adv-x="516" 
d="M219 32l-211 478h92l160 -379h2l154 379h92l-315 -726h-88zM138 641q-16 16 -16 38q0 23 16 38t38 15q23 0 38 -15t15 -38q0 -22 -15 -38t-38 -16q-22 0 -38 16zM302.5 641q-16.5 16 -16.5 38q0 23 16 38t38 15q23 0 38.5 -15t15.5 -38q0 -22 -15.5 -38t-38.5 -16
q-21 0 -37.5 16z" />
    <glyph glyph-name="dotlessi" unicode="&#x131;" horiz-adv-x="227" 
d="M71 510h85v-510h-85v510z" />
    <glyph glyph-name="OE" unicode="&#x152;" horiz-adv-x="1165" 
d="M225 34q-84 50 -132 135.5t-48 188.5q0 102 48 188t132 136t187 50q89 0 161.5 -36.5t119.5 -101.5v122h415v-81h-330v-237h298v-80h-298v-237h330v-81h-415v121q-47 -64 -119.5 -100.5t-161.5 -36.5q-103 0 -187 50zM553.5 102.5q64.5 37.5 102 104t37.5 151.5
t-37.5 151.5t-102 104t-141.5 37.5t-141 -37.5t-102 -104.5t-38 -151t38 -151t102 -104.5t141 -37.5t141.5 37.5z" />
    <glyph glyph-name="oe" unicode="&#x153;" horiz-adv-x="1003" 
d="M163 20q-60 36 -93.5 98t-33.5 137t33.5 137t93.5 98t135 36q72 0 129 -33.5t90 -92.5q31 59 84.5 92.5t121.5 33.5q75 0 130 -33.5t84.5 -92.5t29.5 -135q0 -12 -2 -26h-404q3 -58 28 -98t63.5 -60t81.5 -20q99 0 150 92l73 -35q-33 -62 -90 -98t-137 -36q-70 0 -126 33
t-88 93q-32 -60 -89 -93t-129 -33q-75 0 -135 36zM385.5 84.5q40.5 23.5 65 67.5t24.5 103t-24.5 103t-65 67.5t-87.5 23.5t-88 -23.5t-65.5 -67.5t-24.5 -103t24.5 -103t65.5 -67.5t88 -23.5t87.5 23.5zM877 309q-2 32 -18 64t-50 54t-86 22q-60 0 -102 -38.5t-55 -101.5
h311z" />
    <glyph glyph-name="circumflex" unicode="&#x2c6;" horiz-adv-x="395" 
d="M58 600l102 116h75l102 -116v-5h-82l-54 63h-8l-53 -63h-82v5z" />
    <glyph glyph-name="ring" unicode="&#x2da;" horiz-adv-x="402" 
d="M128 599q-30 30 -30 73q0 44 30 73.5t73 29.5t73.5 -30t30.5 -73t-30.5 -73t-73.5 -30t-73 30zM234 638q14 14 14 34t-13.5 33.5t-33.5 13.5q-19 0 -33 -14t-14 -33t14 -33.5t33 -14.5t33 14z" />
    <glyph glyph-name="tilde" unicode="&#x2dc;" horiz-adv-x="398" 
d="M221.5 603.5q-17.5 7.5 -42.5 21.5q-29 18 -40 18q-33 0 -36 -37h-70q0 38 16 63.5t41 38t50 12.5q31 0 80 -30q30 -17 39 -17q33 0 36 37h70q0 -55 -33.5 -84.5t-74.5 -29.5q-18 0 -35.5 7.5z" />
    <glyph glyph-name="uni2002" unicode="&#x2002;" horiz-adv-x="415" 
d="M0 0z" />
    <glyph glyph-name="uni2009" unicode="&#x2009;" horiz-adv-x="138" 
d="M0 0z" />
    <glyph glyph-name="uni200B" unicode="&#x200b;" horiz-adv-x="0" 
d="M0 0z" />
    <glyph glyph-name="endash" unicode="&#x2013;" horiz-adv-x="600" 
d="M62 345h476v-70h-476v70z" />
    <glyph glyph-name="emdash" unicode="&#x2014;" horiz-adv-x="900" 
d="M62 345h776v-70h-776v70z" />
    <glyph glyph-name="quoteleft" unicode="&#x2018;" horiz-adv-x="224" 
d="M65.5 528.5q-18.5 18.5 -18.5 45.5q0 16 6.5 31t20.5 36l63 91l40 -26l-49 -75q18 -3 32 -18.5t14 -38.5q0 -27 -18.5 -45.5t-44.5 -18.5q-27 0 -45.5 18.5z" />
    <glyph glyph-name="quoteright" unicode="&#x2019;" horiz-adv-x="224" 
d="M47 536l53 75q-21 4 -35.5 19t-14.5 38q0 27 18.5 45.5t44.5 18.5q27 0 45.5 -18.5t18.5 -45.5q0 -16 -6.5 -31t-20.5 -36l-63 -91z" />
    <glyph glyph-name="quotesinglbase" unicode="&#x201a;" horiz-adv-x="224" 
d="M47 -75l53 75q-21 4 -35.5 19t-14.5 38q0 27 18.5 45.5t44.5 18.5q27 0 45.5 -18.5t18.5 -45.5q0 -16 -6.5 -31t-20.5 -36l-63 -91z" />
    <glyph glyph-name="quotedblleft" unicode="&#x201c;" horiz-adv-x="392" 
d="M63.5 528.5q-18.5 18.5 -18.5 45.5q0 16 6.5 31t20.5 36l63 91l40 -26l-49 -75q18 -3 32 -18.5t14 -38.5q0 -27 -18.5 -45.5t-44.5 -18.5q-27 0 -45.5 18.5zM232.5 528.5q-18.5 18.5 -18.5 45.5q0 16 6.5 31t20.5 36l63 91l40 -26l-49 -75q18 -3 32 -18.5t14 -38.5
q0 -27 -18.5 -45.5t-44.5 -18.5q-27 0 -45.5 18.5z" />
    <glyph glyph-name="quotedblright" unicode="&#x201d;" horiz-adv-x="392" 
d="M45 536l53 75q-21 4 -35.5 19t-14.5 38q0 27 18.5 45.5t44.5 18.5q27 0 45.5 -18.5t18.5 -45.5q0 -16 -6.5 -31t-20.5 -36l-63 -91zM214 536l53 75q-21 4 -35.5 19t-14.5 38q0 27 18.5 45.5t44.5 18.5q27 0 45.5 -18.5t18.5 -45.5q0 -16 -6.5 -31t-20.5 -36l-63 -91z" />
    <glyph glyph-name="quotedblbase" unicode="&#x201e;" horiz-adv-x="392" 
d="M45 -75l53 75q-21 4 -35.5 19t-14.5 38q0 27 18.5 45.5t44.5 18.5q27 0 45.5 -18.5t18.5 -45.5q0 -16 -6.5 -31t-20.5 -36l-63 -91zM214 -75l53 75q-21 4 -35.5 19t-14.5 38q0 27 18.5 45.5t44.5 18.5q27 0 45.5 -18.5t18.5 -45.5q0 -16 -6.5 -31t-20.5 -36l-63 -91z" />
    <glyph glyph-name="bullet" unicode="&#x2022;" horiz-adv-x="381" 
d="M111.5 244.5q-33.5 33.5 -33.5 79.5q0 47 33.5 80t79.5 33t79 -33.5t33 -79.5t-33 -79.5t-79 -33.5t-79.5 33.5z" />
    <glyph glyph-name="ellipsis" unicode="&#x2026;" horiz-adv-x="698" 
d="M75.5 12.5q-18.5 18.5 -18.5 45.5q0 26 18.5 44.5t45.5 18.5t45.5 -18.5t18.5 -44.5q0 -27 -18.5 -45.5t-45.5 -18.5t-45.5 18.5zM305.5 12.5q-18.5 18.5 -18.5 45.5q0 26 18.5 44.5t45.5 18.5t45.5 -18.5t18.5 -44.5q0 -27 -18.5 -45.5t-45.5 -18.5t-45.5 18.5z
M535.5 12.5q-18.5 18.5 -18.5 45.5q0 26 18.5 44.5t45.5 18.5t45.5 -18.5t18.5 -44.5q0 -27 -18.5 -45.5t-45.5 -18.5t-45.5 18.5z" />
    <glyph glyph-name="guilsinglleft" unicode="&#x2039;" horiz-adv-x="348" 
d="M39 271l200 217l50 -46l-161 -171l161 -171l-50 -46z" />
    <glyph glyph-name="guilsinglright" unicode="&#x203a;" horiz-adv-x="348" 
d="M59 100l160 171l-160 171l50 46l200 -217l-200 -217z" />
    <glyph glyph-name="fraction" unicode="&#x2044;" horiz-adv-x="173" 
d="M-173 28l466 695l53 -36l-466 -694z" />
    <glyph glyph-name="uni2074" unicode="&#x2074;" horiz-adv-x="342" 
d="M199 424h-172v44l176 248h61v-236h49v-56h-49v-74h-65v74zM199 480v137h-4l-98 -137h102z" />
    <glyph glyph-name="Euro" unicode="&#x20ac;" horiz-adv-x="636" 
d="M607 25q-71 -41 -163 -41q-75 0 -140 29.5t-111.5 84.5t-67.5 129h-96v70h82q-2 30 -2 45t2 45h-82v70h96q21 74 68 129t112 84.5t139 29.5q39 0 78 -11t70 -31l-40 -68q-28 15 -53.5 21.5t-55.5 6.5q-77 0 -139.5 -41.5t-90.5 -119.5h228v-70h-243q-3 -21 -3 -45t3 -45
h243v-70h-228q28 -78 91 -119.5t140 -41.5q66 0 124 32z" />
    <glyph glyph-name="trademark" unicode="&#x2122;" horiz-adv-x="499" 
d="M77 676h-69v40h179v-40h-66v-186h-44v186zM225 716h60l64 -164h2l64 164h60v-226h-42v122l2 44h-2l-68 -166h-30l-68 166h-2l2 -44v-122h-42v226z" />
    <glyph glyph-name="arrowup" unicode="&#x2191;" horiz-adv-x="451" 
d="M190 631h-151l186 186l187 -186h-152v-748h-70v748z" />
    <glyph glyph-name="arrowdown" unicode="&#x2193;" horiz-adv-x="451" 
d="M39 41h151v748h70v-748h152l-187 -186z" />
    <glyph glyph-name="minus" unicode="&#x2212;" horiz-adv-x="558" 
d="M62 306h434v-70h-434v70z" />
    <glyph glyph-name="uni2215" unicode="&#x2215;" horiz-adv-x="300" 
d="M220 716h78l-218 -716h-78z" />
    <glyph glyph-name="NULL" horiz-adv-x="0" 
d="M0 0z" />
    <glyph glyph-name="Ldot" horiz-adv-x="509" 
d="M80 716h85v-635h313v-81h-398v716zM285.5 298.5q-18.5 18.5 -18.5 45.5t18.5 45.5t45.5 18.5q26 0 44.5 -18.5t18.5 -45.5t-18.5 -45.5t-44.5 -18.5q-27 0 -45.5 18.5z" />
    <glyph glyph-name="G.super" horiz-adv-x="1000" 
d="M290.5 15q-95.5 56 -151.5 151.5t-56 208.5t56 208.5t151.5 151.5t208.5 56q82 0 152 -28t126 -80l-119 -120q-65 62 -159 62q-67 0 -123.5 -34t-89.5 -91.5t-33 -124.5t33 -125t89.5 -92t123.5 -34q90 0 150 46t74 120h-224v161h392q7 -39 7 -86q0 -118 -50 -210
t-140.5 -144t-208.5 -52q-113 0 -208.5 56z" />
    <glyph glyph-name="r.alt" horiz-adv-x="369" 
d="M63 510h81v-81h4q18 45 61 70t95 25q21 0 36 -3v-87q-17 4 -46 4q-65 0 -105.5 -43t-40.5 -112v-283h-85v510z" />
    <glyph glyph-name="uni03BC" horiz-adv-x="561" 
d="M59 510h85v-305q0 -74 33.5 -109t88.5 -35q43 0 76.5 23t52 60.5t18.5 78.5v287h85v-510h-81v74h-4q-23 -39 -66.5 -64.5t-98.5 -25.5q-30 0 -57.5 12.5t-46.5 32.5h-4l4 -60v-185h-85v726z" />
    <glyph glyph-name="zero.denominator" horiz-adv-x="369" 
d="M100.5 19q-34.5 27 -52.5 71t-18 93t18 93t52.5 71t82.5 27t83 -27t53 -71t18 -93t-18 -93t-53 -71t-83 -27t-82.5 27zM248 92q22 41 22 91t-22 91t-65 41q-42 0 -64 -41t-22 -91t22 -91t64 -41q43 0 65 41z" />
    <glyph glyph-name="one.denominator" horiz-adv-x="235" 
d="M111 282l-52 -43l-37 48l98 79h56v-366h-65v282z" />
    <glyph glyph-name="two.denominator" horiz-adv-x="300" 
d="M24 56l135 135q21 22 32.5 39t11.5 37t-16 34t-40 14t-41.5 -15.5t-23.5 -45.5l-60 25q10 44 45 69.5t79 25.5q50 0 86.5 -29.5t36.5 -77.5q0 -31 -18 -58t-44 -53l-97 -97h161v-59h-247v56z" />
    <glyph glyph-name="three.denominator" horiz-adv-x="320" 
d="M71 17q-37 25 -49 74l60 23q8 -32 28.5 -47.5t45.5 -15.5q26 0 45.5 16.5t19.5 41.5q0 24 -18.5 38.5t-45.5 14.5h-41v56h36q25 0 40.5 14t15.5 36q0 21 -15.5 34t-37.5 13q-44 0 -62 -45l-57 23q13 37 43.5 59t75.5 22q53 0 86.5 -29.5t33.5 -75.5t-46 -76
q58 -32 58 -84q0 -53 -38.5 -85t-92.5 -32q-48 0 -85 25z" />
    <glyph glyph-name="four.denominator" horiz-adv-x="340" 
d="M198 74h-172v44l176 248h61v-236h49v-56h-49v-74h-65v74zM198 130v137h-4l-98 -137h102z" />
    <glyph glyph-name="five.denominator" horiz-adv-x="312" 
d="M72.5 14.5q-37.5 22.5 -50.5 68.5l61 23q6 -26 25.5 -40.5t46.5 -14.5q28 0 47 20t19 49t-19 48.5t-47 19.5q-40 0 -65 -35l-56 23l25 189h207v-56h-153l-12 -86q10 10 27 15.5t35 5.5q52 0 88 -34.5t36 -90.5q0 -36 -18 -65t-48.5 -45.5t-65.5 -16.5q-45 0 -82.5 22.5z
" />
    <glyph glyph-name="six.denominator" horiz-adv-x="312" 
d="M89 9q-31 17 -49 46t-18 63q0 29 11.5 56.5t33.5 57.5l108 150l51 -35l-87 -111q9 6 26 6q34 0 62 -17.5t44.5 -46t16.5 -60.5q0 -34 -18.5 -63t-48.5 -46t-65 -17q-36 0 -67 17zM202.5 71q18.5 20 18.5 48q0 27 -19 47t-47 20t-47 -20t-19 -47q0 -28 18.5 -48t47.5 -20
t47.5 20z" />
    <glyph glyph-name="seven.denominator" horiz-adv-x="295" 
d="M38 16l161 291h-176v59h248v-55l-175 -326z" />
    <glyph glyph-name="eight.denominator" horiz-adv-x="313" 
d="M91 6q-31 14 -50 39.5t-19 59.5q0 26 14 49t40 39q-18 11 -30 31.5t-12 41.5q0 48 36.5 78t85.5 30t85 -30t36 -78q0 -20 -12 -40.5t-30 -32.5q26 -16 40 -39t14 -49q0 -51 -40 -82t-93 -31q-34 0 -65 14zM194 232q16 14 16 34t-15.5 34.5t-38.5 14.5q-24 0 -39.5 -14
t-15.5 -35t16 -34.5t39 -13.5q22 0 38 14zM201.5 67.5q20.5 16.5 20.5 40.5q0 23 -21 39.5t-45 16.5q-26 0 -46.5 -16t-20.5 -40q0 -25 20 -41t47 -16q25 0 45.5 16.5z" />
    <glyph glyph-name="nine.denominator" horiz-adv-x="312" 
d="M84 19l88 111q-11 -6 -27 -6q-34 0 -62 17.5t-44.5 46t-16.5 60.5q0 34 18.5 63t49 46t65.5 17q36 0 66.5 -17t48.5 -46t18 -63q0 -29 -11.5 -56.5t-33.5 -57.5l-108 -150zM202.5 200q18.5 20 18.5 47q0 28 -18.5 48t-46.5 20q-29 0 -48 -20t-19 -48q0 -27 19 -47t48 -20
q28 0 46.5 20z" />
    <glyph glyph-name="zero.numerator" horiz-adv-x="369" 
d="M101.5 369q-34.5 27 -52.5 71t-18 93t18 93t52.5 71t82.5 27t83 -27t53 -71t18 -93t-18 -93t-53 -71t-83 -27t-82.5 27zM249 442q22 41 22 91t-22 91t-65 41q-42 0 -64 -41t-22 -91t22 -91t64 -41q43 0 65 41z" />
    <glyph glyph-name="one.numerator" horiz-adv-x="235" 
d="M112 632l-52 -43l-37 48l98 79h56v-366h-65v282z" />
    <glyph glyph-name="two.numerator" horiz-adv-x="300" 
d="M25 406l135 135q21 22 32.5 39t11.5 37t-16 34t-40 14t-41.5 -15.5t-23.5 -45.5l-60 25q10 44 45 69.5t79 25.5q50 0 86.5 -29.5t36.5 -77.5q0 -31 -18 -58t-44 -53l-97 -97h161v-59h-247v56z" />
    <glyph glyph-name="three.numerator" horiz-adv-x="320" 
d="M72 367q-37 25 -49 74l60 23q8 -32 28.5 -47.5t45.5 -15.5q26 0 45.5 16.5t19.5 41.5q0 24 -18.5 38.5t-45.5 14.5h-41v56h36q25 0 40.5 14t15.5 36q0 21 -15.5 34t-37.5 13q-44 0 -62 -45l-57 23q13 37 43.5 59t75.5 22q53 0 86.5 -29.5t33.5 -75.5t-46 -76
q58 -32 58 -84q0 -53 -38.5 -85t-92.5 -32q-48 0 -85 25z" />
    <glyph glyph-name="four.numerator" horiz-adv-x="340" 
d="M199 424h-172v44l176 248h61v-236h49v-56h-49v-74h-65v74zM199 480v137h-4l-98 -137h102z" />
    <glyph glyph-name="five.numerator" horiz-adv-x="312" 
d="M73.5 365.5q-37.5 22.5 -50.5 68.5l61 23q6 -26 25.5 -40.5t46.5 -14.5q28 0 47 20t19 49t-19 48.5t-47 19.5q-40 0 -65 -35l-56 23l25 189h207v-56h-153l-12 -86q10 10 27 15.5t35 5.5q52 0 88 -34.5t36 -90.5q0 -36 -18 -65t-48.5 -45.5t-65.5 -16.5q-45 0 -82.5 22.5z
" />
    <glyph glyph-name="six.numerator" horiz-adv-x="312" 
d="M90 359q-31 17 -49 46t-18 63q0 29 11.5 56.5t33.5 57.5l108 150l51 -35l-87 -111q9 6 26 6q34 0 62 -17.5t44.5 -46t16.5 -60.5q0 -34 -18.5 -63t-48.5 -46t-65 -17q-36 0 -67 17zM203.5 421q18.5 20 18.5 48q0 27 -19 47t-47 20t-47 -20t-19 -47q0 -28 18.5 -48
t47.5 -20t47.5 20z" />
    <glyph glyph-name="seven.numerator" horiz-adv-x="295" 
d="M38 366l157 291h-172v59h248v-55l-175 -326z" />
    <glyph glyph-name="eight.numerator" horiz-adv-x="313" 
d="M92 356q-31 14 -50 39.5t-19 59.5q0 26 14 49t40 39q-18 11 -30 31.5t-12 41.5q0 48 36.5 78t85.5 30t85 -30t36 -78q0 -20 -12 -40.5t-30 -32.5q26 -16 40 -39t14 -49q0 -51 -40 -82t-93 -31q-34 0 -65 14zM195 582q16 14 16 34t-15.5 34.5t-38.5 14.5q-24 0 -39.5 -14
t-15.5 -35t16 -34.5t39 -13.5q22 0 38 14zM202.5 417.5q20.5 16.5 20.5 40.5q0 23 -21 39.5t-45 16.5q-26 0 -46.5 -16t-20.5 -40q0 -25 20 -41t47 -16q25 0 45.5 16.5z" />
    <glyph glyph-name="nine.numerator" horiz-adv-x="312" 
d="M85 369l88 111q-11 -6 -27 -6q-34 0 -62 17.5t-44.5 46t-16.5 60.5q0 34 18.5 63t49 46t65.5 17q36 0 66.5 -17t48.5 -46t18 -63q0 -29 -11.5 -56.5t-33.5 -57.5l-108 -150zM203.5 550q18.5 20 18.5 47q0 28 -18.5 48t-46.5 20q-29 0 -48 -20t-19 -48q0 -27 19 -47
t48 -20q28 0 46.5 20z" />
    <glyph glyph-name="zero.tf" 
d="M182.5 31.5q-62.5 47.5 -96 129t-33.5 181.5t33.5 181.5t95.5 129t144 47.5t144 -47.5t96 -129t34 -181.5t-34 -181.5t-96.5 -129t-143.5 -47.5t-143.5 47.5zM425 101.5q42 36.5 65 99.5t23 141t-23 141t-65 99.5t-99 36.5t-99 -36.5t-64.5 -99.5t-22.5 -141t22.5 -141
t64.5 -99.5t99 -36.5t99 36.5z" />
    <glyph glyph-name="one.tf" 
d="M143 81h158v484l-121 -86l-44 65l195 140h54v-603h156v-81h-398v81z" />
    <glyph glyph-name="two.tf" 
d="M107 85q196 197 251 257q51 55 69 86t18 75q0 29 -15 56t-44.5 43.5t-70.5 16.5q-54 0 -87 -31.5t-43 -68.5l-77 31q9 32 35 66.5t70 59t104 24.5q63 0 111.5 -27t75.5 -72t27 -97q0 -105 -110 -217l-205 -206h323v-81h-432v85z" />
    <glyph glyph-name="three.tf" 
d="M220 2q-45 18 -81.5 56.5t-52.5 96.5l77 32q16 -58 54.5 -90t90.5 -32q38 0 71 16.5t52.5 46t19.5 65.5q0 35 -19.5 64t-53 45.5t-73.5 16.5h-59v79h53q55 0 92 31.5t37 83.5q0 48 -36 77t-89 29q-52 0 -81.5 -27t-42.5 -66l-78 33q18 54 69.5 97.5t132.5 43.5
q60 0 108 -24t75.5 -67t27.5 -96t-27 -90t-67 -58v-4q51 -21 84 -64.5t33 -102.5q0 -60 -30.5 -108t-83 -75t-115.5 -27q-43 0 -88 18z" />
    <glyph glyph-name="four.tf" 
d="M395 147h-328v64l320 473h92v-457h88v-80h-88v-147h-84v147zM395 227v333h-4l-227 -333h231z" />
    <glyph glyph-name="five.tf" 
d="M220 4.5q-47 20.5 -83 62t-51 102.5l75 30q16 -61 56 -97.5t96 -36.5q67 0 109.5 41t42.5 107q0 65 -42 107.5t-108 42.5q-36 0 -68 -16.5t-52 -45.5l-86 38l44 345h354v-81h-284l-27 -207l4 -1q53 45 130 45q59 0 109.5 -29t80.5 -81t30 -116t-30.5 -116.5t-84 -83
t-120.5 -30.5q-48 0 -95 20.5z" />
    <glyph glyph-name="six.tf" 
d="M202.5 17q-53.5 33 -83 85.5t-29.5 110.5q0 55 22.5 105.5t64.5 112.5l179 269l68 -47l-172 -241l2 -2q35 24 88 24q52 0 102 -29t81.5 -79.5t31.5 -112.5q0 -60 -32 -112.5t-85.5 -84.5t-115.5 -32q-68 0 -121.5 33zM398 84.5q34 19.5 54 53t20 74.5q0 40 -20 73.5
t-54 53t-74 19.5t-74.5 -19.5t-54.5 -53t-20 -73.5q0 -41 20 -74.5t54.5 -53t74.5 -19.5t74 19.5z" />
    <glyph glyph-name="seven.tf" 
d="M139 23l319 580h-351v81h440v-87l-332 -613z" />
    <glyph glyph-name="eight.tf" 
d="M207 11q-53 27 -83 73.5t-30 103.5q0 58 31.5 101.5t82.5 68.5v4q-40 24 -65.5 63.5t-25.5 82.5q0 54 26.5 98t74 69t107.5 25q59 0 106.5 -25t74 -69t26.5 -98q0 -43 -25.5 -82.5t-64.5 -63.5v-4q51 -25 82.5 -68.5t31.5 -101.5q0 -57 -30.5 -103.5t-83.5 -73.5
t-117 -27q-65 0 -118 27zM412 429q34 31 34 81t-34.5 79.5t-86.5 29.5q-53 0 -87.5 -29.5t-34.5 -79.5t34.5 -81t87.5 -31t87 31zM427.5 100.5q41.5 35.5 41.5 92.5q0 55 -41.5 90.5t-102.5 35.5t-103 -35.5t-42 -90.5q0 -57 42 -92.5t103 -35.5t102.5 35.5z" />
    <glyph glyph-name="nine.tf" 
d="M224 31l172 241l-2 2q-35 -24 -88 -24q-52 0 -102 29t-81.5 79.5t-31.5 112.5q0 60 31.5 112.5t85 84.5t116.5 32q68 0 121.5 -33t83 -85.5t29.5 -110.5q0 -55 -22.5 -105.5t-64.5 -112.5l-179 -269zM398.5 345.5q34.5 19.5 54.5 53t20 73.5q0 41 -20 74.5t-54.5 53
t-74.5 19.5t-74 -19.5t-54 -53t-20 -74.5q0 -40 20 -73.5t54 -53t74 -19.5t74.5 19.5z" />
    <glyph glyph-name="comma.alt" horiz-adv-x="271" 
d="M125 122h100l-101 -220h-74z" />
    <glyph glyph-name="semicolon.alt" horiz-adv-x="271" 
d="M110.5 406.5q-18.5 18.5 -18.5 45.5t18.5 45.5t45.5 18.5q26 0 44.5 -18.5t18.5 -45.5t-18.5 -45.5t-44.5 -18.5q-27 0 -45.5 18.5zM122 122h99l-104 -220h-71z" />
    <glyph glyph-name="period.tf" horiz-adv-x="304" 
d="M107.5 12.5q-18.5 18.5 -18.5 45.5q0 26 18.5 44.5t45.5 18.5t45.5 -18.5t18.5 -44.5q0 -27 -18.5 -45.5t-45.5 -18.5t-45.5 18.5z" />
    <glyph glyph-name="comma.tf" horiz-adv-x="302" 
d="M116 122h100l-101 -220h-74z" />
    <glyph glyph-name="colon.tf" horiz-adv-x="304" 
d="M107.5 406.5q-18.5 18.5 -18.5 45.5t18.5 45.5t45.5 18.5q26 0 44.5 -18.5t18.5 -45.5t-18.5 -45.5t-44.5 -18.5q-27 0 -45.5 18.5zM107.5 12.5q-18.5 18.5 -18.5 45.5q0 26 18.5 44.5t45.5 18.5q26 0 44.5 -18.5t18.5 -44.5q0 -27 -18.5 -45.5t-44.5 -18.5
q-27 0 -45.5 18.5z" />
    <glyph glyph-name="semicolon.tf" horiz-adv-x="302" 
d="M105.5 406.5q-18.5 18.5 -18.5 45.5t18.5 45.5t45.5 18.5q26 0 44.5 -18.5t18.5 -45.5t-18.5 -45.5t-44.5 -18.5q-27 0 -45.5 18.5zM117 122h99l-104 -220h-71z" />
    <glyph glyph-name="numbersign.tf" horiz-adv-x="638" 
d="M148 206h-124l12 70h123l21 141h-125l11 70h124l29 197h75l-30 -197h142l29 197h75l-30 -197h124l-11 -70h-123l-21 -141h125l-11 -70h-125l-30 -206h-75l31 206h-142l-30 -206h-75zM375 276l21 141h-142l-21 -141h142z" />
    <glyph glyph-name="space.tf" horiz-adv-x="325" 
d="M0 0z" />
    <glyph glyph-name="cent.tf" 
d="M489.5 130.5q-46.5 -37.5 -113.5 -45.5v-85h-70v85q-62 9 -110.5 44.5t-75.5 90.5t-27 122t27 122.5t75.5 91t110.5 43.5v85h70v-85q67 -8 112 -45t68 -92l-77 -32q-31 76 -103 92v-360q37 8 64.5 32t43.5 60l75 -32q-23 -54 -69.5 -91.5zM214.5 224q37.5 -49 91.5 -62
v360q-54 -13 -91.5 -62t-37.5 -118t37.5 -118z" />
    <glyph glyph-name="currency.tf" 
d="M87 143l60 58q-38 59 -38 124q0 66 38 124l-60 59l50 50l59 -57q56 43 129 43q72 0 128 -43l59 57l50 -50l-59 -58q37 -58 37 -125q0 -66 -37 -124l59 -58l-50 -50l-59 57q-27 -21 -60 -32.5t-68 -11.5q-72 0 -129 44l-59 -57zM393.5 199.5q31.5 19.5 50 53t18.5 72.5
t-18.5 72.5t-50 53t-68.5 19.5q-38 0 -69.5 -19.5t-50 -53t-18.5 -72.5t18.5 -72.5t50 -53t69.5 -19.5q37 0 68.5 19.5z" />
    <glyph glyph-name="dollar.tf" 
d="M496 47q-53 -49 -132 -60v-87h-70v86q-71 8 -130.5 55.5t-80.5 126.5l76 30q14 -50 50.5 -86t84.5 -45v251l-3 1q-90 36 -136 83t-46 117q0 44 22 83.5t64 65.5t99 31v85h70v-87q70 -11 113 -50.5t57 -84.5l-75 -32q-9 28 -32.5 51.5t-62.5 32.5v-235q88 -37 136.5 -81
t48.5 -118q0 -84 -53 -133zM218.5 456q24.5 -26 75.5 -49v210q-45 -7 -72.5 -33.5t-27.5 -64.5q0 -37 24.5 -63zM437.5 106q27.5 28 27.5 72q0 37 -25 62.5t-76 48.5v-220q46 9 73.5 37z" />
    <glyph glyph-name="Euro.tf" 
d="M613 25q-71 -41 -163 -41q-75 0 -140 29.5t-111.5 84.5t-67.5 129h-96v70h82q-2 30 -2 45t2 45h-82v70h96q21 74 68 129t112 84.5t139 29.5q39 0 78 -11t70 -31l-40 -68q-28 15 -53.5 21.5t-55.5 6.5q-77 0 -139.5 -41.5t-90.5 -119.5h228v-70h-243q-3 -21 -3 -45t3 -45
h243v-70h-228q28 -78 91 -119.5t140 -41.5q66 0 124 32z" />
    <glyph glyph-name="sterling.tf" 
d="M565 111q-42 -111 -158 -111h-309v73q49 22 74.5 63t25.5 89q0 8 -2 24h-97v71h70q-2 4 -17 29q-26 44 -39.5 77.5t-13.5 76.5q0 52 25.5 97.5t72 72.5t106.5 27q80 0 129 -42.5t68 -98.5l-78 -32q-12 39 -41.5 65.5t-77.5 26.5q-55 0 -87.5 -35t-32.5 -81
q0 -34 12 -62.5t37 -69.5q4 -7 14 -22q9 -16 15 -29h138v-71h-118v-11q0 -42 -16.5 -82.5t-46.5 -71.5l4 -3h185q38 0 57.5 14.5t30.5 44.5z" />
    <glyph glyph-name="yen.tf" 
d="M284 169h-171v70h171v85h-171v70h126l-186 290h97l140 -232l34 -57h4l33 57l137 232h97l-183 -290h123v-70h-167v-85h167v-70h-167v-169h-84v169z" />
    <glyph glyph-name="plus.tf" 
d="M541 236h-182v-182h-70v182h-182v70h182v182h70v-182h182v-70z" />
    <glyph glyph-name="minus.tf" 
d="M109 306h434v-70h-434v70z" />
    <glyph glyph-name="multiply.tf" 
d="M119 116l159 155l-159 155l47 47l160 -156l160 156l47 -47l-160 -155l160 -155l-47 -47l-160 156l-160 -156z" />
    <glyph glyph-name="divide.tf" 
d="M279.5 413.5q-18.5 18.5 -18.5 44.5q0 27 18.5 45.5t45.5 18.5t45.5 -18.5t18.5 -45.5q0 -26 -18.5 -44.5t-45.5 -18.5t-45.5 18.5zM108 306h434v-70h-434v70zM279.5 38.5q-18.5 18.5 -18.5 45.5q0 26 18.5 44.5t45.5 18.5t45.5 -18.5t18.5 -44.5q0 -27 -18.5 -45.5
t-45.5 -18.5t-45.5 18.5z" />
    <glyph glyph-name="equal.tf" 
d="M98 449h446v-70h-446v70zM98 259h446v-70h-446v70z" />
    <glyph glyph-name="greater.tf" 
d="M135 134l293 135v4l-293 135v78l383 -184v-62l-383 -184v78z" />
    <glyph glyph-name="less.tf" 
d="M127 240v62l383 184v-78l-294 -135v-4l294 -135v-78z" />
    <glyph glyph-name="plusminus.tf" 
d="M290 299h-182v70h182v157h70v-157h182v-70h-182v-157h-70v157zM108 70h434v-70h-434v70z" />
    <glyph glyph-name="logicalnot.tf" 
d="M466 312h-363v70h431v-277h-68v207z" />
    <glyph glyph-name="percent.tf" 
d="M101.5 446.5q-31.5 18.5 -50 49.5t-18.5 68t18.5 68.5t50 49.5t69.5 18q37 0 68 -18t49.5 -49.5t18.5 -68.5t-18.5 -68t-49.5 -49.5t-68 -18.5q-38 0 -69.5 18.5zM76 28l445 663l52 -36l-444 -662zM222.5 509.5q21.5 22.5 21.5 54.5t-21.5 54.5t-51.5 22.5
q-31 0 -53 -22.5t-22 -54.5t22 -54.5t53 -22.5q30 0 51.5 22.5zM411.5 2.5q-31.5 18.5 -50 49.5t-18.5 68t18.5 68.5t50 49.5t69.5 18q37 0 68.5 -18t50 -49.5t18.5 -68.5t-18.5 -68t-50 -49.5t-68.5 -18.5q-38 0 -69.5 18.5zM533 65.5q21 22.5 21 54.5t-21 54.5t-52 22.5
t-53 -22.5t-22 -54.5t22 -54.5t53 -22.5t52 22.5z" />
    <glyph glyph-name="section.tf" 
d="M551 -42q0 -59 -32 -102t-83 -65.5t-106 -22.5q-78 0 -142 49.5t-87 140.5l79 32q17 -63 55.5 -102t94.5 -39t95 30.5t39 76.5q0 51 -38.5 82.5t-126.5 58.5q-89 28 -132 71.5t-43 108.5q0 41 22.5 77.5t63.5 60.5q-88 53 -88 144q0 42 24 82t70.5 65.5t109.5 25.5
q53 0 96 -22.5t70 -56t37 -66.5l-78 -32q-11 36 -43.5 66t-79.5 30q-35 0 -62.5 -13t-42.5 -34.5t-15 -44.5q0 -37 30 -61t96 -46q104 -33 160.5 -79.5t56.5 -132.5q0 -43 -18.5 -80t-49.5 -59q68 -55 68 -143zM239 218q29 -24 94 -45q43 -13 83 -31q22 15 35.5 42t13.5 52
q0 52 -38.5 82.5t-127.5 58.5l-7 2q-37 -11 -59.5 -40t-22.5 -59q0 -38 29 -62z" />
    <glyph glyph-name="uni0308" horiz-adv-x="0" 
d="M-316 641q-16 16 -16 38q0 23 16 38t38 15q23 0 38 -15t15 -38q0 -22 -15 -38t-38 -16q-22 0 -38 16zM-151.5 641q-16.5 16 -16.5 38q0 23 16 38t38 15q23 0 38.5 -15t15.5 -38q0 -22 -15.5 -38t-38.5 -16q-21 0 -37.5 16z" />
    <glyph glyph-name="gravecomb" horiz-adv-x="0" 
d="M-299 736h93l52 -127h-75z" />
    <glyph glyph-name="acutecomb" horiz-adv-x="0" 
d="M-190 736h93l-71 -127h-74z" />
    <glyph glyph-name="uni0302" horiz-adv-x="0" 
d="M-337 619l102 117h75l102 -117v-5h-82l-54 64h-8l-53 -64h-82v5z" />
    <glyph glyph-name="uni030A" horiz-adv-x="0" 
d="M-274 618.5q-30 30.5 -30 73.5t30 73t73 30t73.5 -30t30.5 -73t-30.5 -73.5t-73.5 -30.5t-73 30.5zM-167.5 658q13.5 14 13.5 34t-14 33.5t-33 13.5t-33 -14t-14 -33q0 -20 14 -34t33 -14q20 0 33.5 14z" />
    <glyph glyph-name="tildecomb" horiz-adv-x="400" 
d="M-176.5 623.5q-17.5 7.5 -42.5 21.5q-29 18 -40 18q-33 0 -36 -37h-70q0 55 33 84t74 29q31 0 80 -30q30 -17 39 -17q33 0 36 37h70q0 -55 -33 -84t-75 -29q-18 0 -35.5 7.5z" />
    <glyph glyph-name="uni0308.cap" horiz-adv-x="0" 
d="M-316 805.5q-16 16.5 -16 37.5q0 23 16 38.5t38 15.5q23 0 38 -15.5t15 -38.5q0 -22 -15 -38t-38 -16q-22 0 -38 16.5zM-151.5 805.5q-16.5 16.5 -16.5 37.5q0 23 16 38.5t38 15.5q23 0 38.5 -15.5t15.5 -38.5q0 -22 -15.5 -38t-38.5 -16q-21 0 -37.5 16.5z" />
    <glyph glyph-name="gravecomb.cap" horiz-adv-x="0" 
d="M-299 900h93l52 -127h-75z" />
    <glyph glyph-name="acutecomb.cap" horiz-adv-x="0" 
d="M-190 900h93l-71 -127h-74z" />
    <glyph glyph-name="uni0302.cap" horiz-adv-x="0" 
d="M-337 784l102 116h75l102 -116v-5h-82l-54 63h-8l-53 -63h-82v5z" />
    <glyph glyph-name="tildecomb.cap" horiz-adv-x="0" 
d="M-176.5 787.5q-17.5 7.5 -42.5 21.5q-29 18 -40 18q-33 0 -36 -37h-70q0 38 16 63.5t41 38t50 12.5q31 0 80 -30q30 -17 39 -17q33 0 36 37h70q0 -55 -33.5 -84.5t-74.5 -29.5q-18 0 -35.5 7.5z" />
    </font>
</defs>
</svg>
